BrowseTrendingLibraryHelp




Title:

L'Insulto - L'insulte (2017) (2017) H264 ita ara sub ita NUita-MIRCrew

Health:

Seeders : 133 Leechers: 50 Peers : 183 Completed : 671

Update:

7 days ago

Rating:

0 0 0

Created:

1 week ago

Uploaded:

6 days ago

Hash:

5bcdb7958ee7b4583eebff3128deea1438165bfe

Size:

1.42 GBs

Download:

Views:

20

Tags:

Insulto insulte 2017 2017 H264 ita ara sub ita NUita MIRCrew

Category:

movies

Share:

http://torrent4you.me/torrent/41057

Comment:

dynamic metainfo from client

Title

L Insulto L insulte 2017 2017 H264 ita ara sub ita NUita MIRCrew

0 0 0

Statistics

Seeders : 133
Leechers: 50
Peers : 183
Completed : 671
Uploaded : 6 days ago
Created : 1 week ago
Views : 20
Size : 1.42 GBs


7 days ago


5bcdb7958ee7b4583eebff3128deea1438165bfe

Tag

Insulto insulte 2017 2017 H264 ita ara sub ita NUita MIRCrew

Category: movies

dynamic metainfo from client

Description

L Insulto - L insulte (2017).H264.italian.Ac3-5.1.ara.Mp3.sub.ita.MIRCrew


NO FOUND ONLY ORIGINAL RELEASE




My release is always in double track audio italian and Original audio
for select it use VLC or dvd player home
not use wmp

SOTTOTITOLI ITALIANI PER NON UDENTI INCLUSI

L'Insulto - L'insulte (2017)







Riconoscimenti

2017 - Mostra internazionale d'arte cinematografica di Venezia
Migliore interpretazione maschile a Kamel El Basha
In competizione per il Leone d'oro al miglior film
2018 - Premio Oscar
Candidatura per il Miglior film straniero
2018 - David di Donatello
Candidatura per il Miglior film straniero

Titolo originale L'insulte
Paese di produzione Libano, Francia, Stati Uniti d'America, Belgio, Cipro
Anno 2017
Durata 112 min
Genere drammatico
Regia Ziad Doueiri
Sceneggiatura Ziad Doueiri e Joelle Touma
Distribuzione (Italia) Lucky Red
Fotografia Tommaso Fiorilli
Montaggio Dominique Marcombe
Musiche Éric Neveux
Scenografia Hussein Baydoun



Adel Karam: Tony Hanna
Kamel El Basha: Yasser Abdallah Salameh
Camille Salameh: Wajdi Wehbe
Diamand Bou Abboud: Nadine Wehbe
Rita Hayek: Shirine Hanna
Talal Jurdi: Talal
Carlos Chahine: giudice Chahine
Christine Choueiri: Manal Salameh
Julia Kassar: giudice Colette Mansour
Rifaat Torbey: Samir Geagea



A causa di un banale incidente, tra il libanese cristiano Tony e il rifugiato palestinese Yasser nasce un forte conflitto che li porta a scontrarsi in tribunale. Quella che poteva essere una semplice questione privata tra i due si trasforma in un conflitto profondo che diventa un caso nazionale, dividendo un intero paese segnato da culture e religioni diverse.



After an emotional exchange between a Lebanese Christian and a Palestinian refugee escalates, the men end up in a court case that gets national attention.










[spoiler]
General
Unique ID : 223712910776797082442809526102844598086 (0xA84D8A14E153D641BAF45120E35D6746)
Complete name : L'Insulto - L'insulte (2017).H264.ita.ara.sub.ita.NUita-MIRCrew\L'Insulto - L'insulte (2017) (2017).H264.ita.ara.sub.ita-MIRCrew.mkv
Format : Matroska
Format version : Version 2
File size : 1.42 GiB
Duration : 1h 53mn
Overall bit rate : 1 787 Kbps
Movie name : MIRCrew
Encoded date : UTC 2018-04-07T15:33:37Z
Writing application : mkvmerge v5.4.0 ('Piper') built on Mar 10 2012 13:34:39
Writing library : Lavf55.12.0

Video
ID : 1
Format : AVC
Format/Info : Advanced Video Codec
Format profile : [email protected]
Format settings, CABAC : Yes
Format settings, ReFrames : 4 frames
Codec ID : V_MPEG4/ISO/AVC
Duration : 1h 53mn
Bit rate : 1 290 Kbps
Width : 720 pixels
Height : 304 pixels
Display aspect ratio : 2.35:1
Frame rate mode : Variable
Frame rate : 24.000 fps
Color space : YUV
Chroma subsampling : 4:2:0
Bit depth : 8 bits
Scan type : Progressive
Bits/(Pixel*Frame) : 0.246
Stream size : 1 009 MiB (69%)
Title : L'Insulto (2017) MIRCrew
Writing library : x264 core 142 r2479 dd79a61
Encoding settings : cabac=1 / ref=3 / deblock=1:0:0 / analyse=0x3:0x113 / me=hex / subme=7 / psy=1 / psy_rd=1.00:0.00 / mixed_ref=1 / me_range=16 / chroma_me=1 / trellis=1 / 8x8dct=1 / cqm=0 / deadzone=21,11 / fast_pskip=1 / chroma_qp_offset=-2 / threads=3 / lookahead_threads=1 / sliced_threads=0 / nr=0 / decimate=1 / interlaced=0 / bluray_compat=0 / constrained_intra=0 / bframes=3 / b_pyramid=2 / b_adapt=1 / b_bias=0 / direct=1 / weightb=1 / open_gop=0 / weightp=2 / keyint=240 / keyint_min=24 / scenecut=40 / intra_refresh=0 / rc_lookahead=40 / rc=abr / mbtree=1 / bitrate=1290 / ratetol=1.0 / qcomp=0.60 / qpmin=0 / qpmax=69 / qpstep=4 / vbv_maxrate=62500 / vbv_bufsize=78125 / nal_hrd=none / filler=0 / ip_ratio=1.40 / aq=1:1.00
Language : Italian
Default : Yes
Forced : No
Color primaries : BT.709-5, BT.1361, IEC 61966-2-4, SMPTE RP177
Transfer characteristics : BT.709-5, BT.1361
Matrix coefficients : BT.709-5, BT.1361, IEC 61966-2-4 709, SMPTE RP177

Audio #1
ID : 2
Format : AC-3
Format/Info : Audio Coding 3
Mode extension : CM (complete main)
Codec ID : A_AC3
Duration : 1h 53mn
Bit rate mode : Constant
Bit rate : 384 Kbps
Channel(s) : 6 channels
Channel positions : Front: L C R, Side: L R, LFE
Sampling rate : 48.0 KHz
Bit depth : 16 bits
Compression mode : Lossy
Delay relative to video : -5ms
Stream size : 313 MiB (21%)
Title : Ita Ac3 5.1
Language : Italian
Default : Yes
Forced : No

Audio #2
ID : 3
Format : MPEG Audio
Format version : Version 1
Format profile : Layer 3
Mode : Joint stereo
Mode extension : MS Stereo
Codec ID : A_MPEG/L3
Codec ID/Hint : MP3
Duration : 1h 53mn
Bit rate mode : Constant
Bit rate : 128 Kbps
Channel(s) : 2 channels
Sampling rate : 48.0 KHz
Compression mode : Lossy
Delay relative to video : -23ms
Stream size : 104 MiB (7%)
Title : Stereo
Language : Arabic
Default : No
Forced : No

Menu
00:00:00.000 : :00:00:00.000
00:07:05.458 : :00:07:05.342
00:14:28.291 : :00:14:28.201
00:20:13.958 : :00:20:13.838
00:29:27.208 : :00:29:27.099
00:39:02.708 : :00:39:02.590
00:50:56.916 : :00:50:56.804
00:59:52.875 : :00:59:52.756
01:08:53.250 : :01:08:53.129
01:16:20.041 : :01:16:19.950
01:25:27.833 : :01:25:27.706
01:35:23.375 : :01:35:23.259
01:45:16.458 : :01:45:16:300
01:50:01.375 : :01:50:01:150

Trackers



Files


Related

DLTitleUpCreatedSize💬
L'Insulto - L'insulte (2017) (2017) H264 ita ara sub ita NUita-MIRCrew
6 days ago 1 week ago 1.42 GBs 0 133 50 671

Related

TitleSize
L'Insulto - L'insulte (2017) (2017) H264 ita ara sub ita NUita-MIRCrew 1.42 GBs 133

Comments

Unidentified:




Magnet4You Torrentz2 PirateIro