BrowseTrendingLibraryHelp




Title:

Black Mirror S02 Special White Christmas 1080p WEB-DL DD2 0 HEVC mkv

Health:

Seeders : 202 Leechers: 12 Peers : 214 Completed : 87738

Update:

5 months ago

Rating:

1 0 0

Created:

49 years ago

Uploaded:

4 months ago

Hash:

49f2d942c054cd5bbf932e1e921642eebe110bf7

Size:

1.34 GBs

Download:

Views:

201

Tags:

Black Mirror S02 Special White Christmas 1080p WEB DL DD2 HEVC mkv

Category:

series

Share:

http://torrent4you.me/torrent/49437

Comment:

Torrent downloaded from torrent cache at http://itorrents.org

Title

Black Mirror S02 Special White Christmas 1080p WEB DL DD2 0 HEVC mkv

1 0 0

Statistics

Seeders : 202
Leechers: 12
Peers : 214
Completed : 87738
Uploaded : 4 months ago
Created : 49 years ago
Views : 201
Size : 1.34 GBs


5 months ago


49f2d942c054cd5bbf932e1e921642eebe110bf7

Tag

Black Mirror S02 Special White Christmas 1080p WEB DL DD2 HEVC mkv

Category: series

Torrent downloaded from torrent cache at http://itorrents.org

Description

Source:Black.Mirror.S02.Special.White.Christmas.1080p.WEB-DL.DD2.0.H.264-CasStudio fCkniGGaz
Duration: 01:13:55.05, start: 0.000000, bitrate: 2588 kb/s
Stream #0:0: Video: hevc (Main), yuv420p(tv), 1920x1080 [SAR 1:1 DAR 16:9], 25 fps, 25 tbr, 1k tbn, 25 tbc (default)

Stream #0:1(eng): Audio: eac3, 48000 Hz, stereo, fltp, 224 kb/s (default) whitePower

Trackers



Related

DLTitleUpCreatedSize💬
Black Mirror Bandersnatch 2018 REPACK 1080p WEB X264-DEFLATE[rarbg]
1 month ago 1 month ago 3.42 GBs 0 626 1672 2K
Black Mirror Bandersnatch 2018 1080p WEB X264-DEFLATE[rarbg]
1 month ago 1 month ago 3.42 GBs 0 194 254 346
( Movcr cc) -Black Mirror Bandersnatch (2018) 1080p NF WEB-DL 6CH 1 6GB [MOVCR]( mkv
1 month ago 1 month ago 1.63 GBs 0 1 4 0
Black Mirror S02 Special White Christmas 1080p WEB-DL DD2 0 HEVC mkv
4 months ago 49 years ago 1.34 GBs 0 202 12 87K
Black Mirror S04E06 INTERNAL 1080p WEB x264-STRiFE[rarbg]
1 year ago 1 year ago 1.2 GBs 0 147 54 680
Black Mirror S04E05 INTERNAL 1080p WEB x264-STRiFE[rarbg]
1 year ago 1 year ago 2.18 GBs 0 148 62 658

Related

TitleSize
Black Mirror Bandersnatch 2018 REPACK 1080p WEB X264-DEFLATE[rarbg] 3.42 GBs 626
Black Mirror Bandersnatch 2018 1080p WEB X264-DEFLATE[rarbg] 3.42 GBs 194
( Movcr cc) -Black Mirror Bandersnatch (2018) 1080p NF WEB-DL 6CH 1 6GB [MOVCR]( mkv 1.63 GBs 1
Black Mirror S02 Special White Christmas 1080p WEB-DL DD2 0 HEVC mkv 1.34 GBs 202
Black Mirror S04E06 INTERNAL 1080p WEB x264-STRiFE[rarbg] 1.2 GBs 147
Black Mirror S04E05 INTERNAL 1080p WEB x264-STRiFE[rarbg] 2.18 GBs 148

Comments

Unidentified:




Magnet4You Torrentz2 PirateIro AIOsearch