BrowseTrendingLibraryHelp




Title:

Karwaan (2018) Comedy, Hindi Movies HDRip

Health:

Seeders : 17 Leechers: 6 Peers : 23 Completed : 187

Update:

4 weeks ago

Rating:

0 0 0

Created:

1 month ago

Uploaded:

1 month ago

Hash:

47e910f1f2c51c837775df1c6ef03020f9bbafe8

Size:

1.05 GBs

Download:

Views:

339

Tags:

Karwaan 2018 Comedy, Hindi Movies HDRip

Share:

http://torrent4you.me/torrent/49980

Title

Karwaan 2018 Comedy, Hindi Movies HDRip

0 0 0

Statistics

Seeders : 17
Leechers: 6
Peers : 23
Completed : 187
Uploaded : 1 month ago
Created : 1 month ago
Views : 339
Size : 1.05 GBs


4 weeks ago


47e910f1f2c51c837775df1c6ef03020f9bbafe8

Tag

Karwaan 2018 Comedy, Hindi Movies HDRip

Description


VISIT US ON MOVIEOW: http://movieow.blogspot.com/


Format : Matroska
Format version : Version 4 / Version 2
File size : 1.05 GiB
Duration : 1 h 53 min
Overall bit rate : 1 317 kb/s
Movie name : Karwaan 2018 Hindi 720p WEB-DL x264 [MW]
Encoded date : UTC 2018-10-01 09:46:11
Writing application : mkvmerge v7.4.0 ('Circles') 64bit built on Dec 12 2014 12:19:56
Writing library : libebml v1.3.0 + libmatroska v1.4.1

Video
ID : 1
Format : AVC
Format/Info : Advanced Video Codec
Format profile : [email protected]
Format settings : CABAC / 4 Ref Frames
Format settings, CABAC : Yes
Format settings, RefFrames : 4 frames
Codec ID : V_MPEG4/ISO/AVC
Duration : 1 h 53 min
Bit rate : 1 200 kb/s
Width : 1 280 pixels
Height : 540 pixels
Display aspect ratio : 2.40:1
Frame rate mode : Constant
Frame rate : 25.000 FPS
Color space : YUV
Chroma subsampling : 4:2:0
Bit depth : 8 bits
Scan type : Progressive
Bits/(Pixel*Frame) : 0.069
Stream size : 967 MiB (90%)
Title : Karwaan 2018 Hindi 720p WEB-DL x264 [MW]
Writing library : x264 core 155 r2901 7d0ff22
Default : Yes
Forced : No
Color range : Limited
Color primaries : BT.709
Transfer characteristics : BT.709
Matrix coefficients : BT.709

Audio
ID : 2
Format : AAC
Format/Info : Advanced Audio Codec
Format profile : LC
Codec ID : A_AAC-2
Duration : 1 h 53 min
Bit rate : 129 kb/s
Channel(s) : 2 channels
Channel positions : Front: L R
Sampling rate : 48.0 kHz
Frame rate : 46.875 FPS (1024 SPF)
Compression mode : Lossy
Delay relative to video : -21 ms
Stream size : 105 MiB (10%)
Language : Hindi

Trackers


Trackers history

Date
3 weeks ago 17 6 187
1 month ago 7 2 133

Files


Related

DLTitleUpCreatedSize💬
Karwaan (2018) Comedy, Hindi Movies HDRip
1 month ago 1 month ago 1.05 GBs 0 17 6 187

Related

TitleSize
Karwaan (2018) Comedy, Hindi Movies HDRip 1.05 GBs 17

Comments

Unidentified:




Magnet4You Torrentz2 PirateIro