BrowseTrendingLibraryHelp




Title:

Enter The Void (2009) 1080p BlurayRip 10-bit x265 HEVC DTS [XannyFamily]

Health:

Seeders : 0 Leechers: 0 Peers : 0 Completed : 0

Update:

2 weeks ago

Rating:

0 0 0

Created:

3 weeks ago

Uploaded:

3 weeks ago

Hash:

a4f63f2f1baa8ac49cb6fa86f7d5684f1f61c510

a4f63f2f1baa8ac49cb6fa86f7d5684f1f61c510

Size:

5.85 GBs

Download:

Views:

102

Tags:

Enter The Void 2009 1080p BlurayRip 10 bit x265 HEVC DTS XannyFamily

Category:

movies

Share:

http://torrent4you.me/torrent/69261


Description

Enter The Void (2009) 1080p BlurayRip 10-bit x265 HEVC DTS [XannyFamily]


Enter the Void is a 2009 English-language experimental drama art film written and directed by Gaspar Noé and starring Nathaniel Brown, Paz de la Huerta, and Cyril Roy. Set in the neon-lit nightclub environments of Tokyo, the story follows Oscar, a young American drug dealer who gets shot by the police, but continues to watch subsequent events during an out-of-body experience. The film is shot from a first-person viewpoint, which often floats above the city streets, and occasionally features Oscar staring over his own shoulder as he recalls moments from his past. Noé labels the film a "psychedelic melodrama".

~ Wikipedia

High quality encode.

Full details:

Video
ID : 1
Format : HEVC
Format/Info : High Efficiency Video Coding
Format profile : Main [email protected]@Main
Codec ID : V_MPEGH/ISO/HEVC
Duration : 2 h 41 min
Bit rate : 3 583 kb/s
Width : 1 920 pixels
Height : 816 pixels
Display aspect ratio : 2.35:1
Frame rate mode : Constant
Frame rate : 23.976 (24000/1001) FPS
Color space : YUV
Chroma subsampling : 4:2:0
Bit depth : 10 bits
Bits/(Pixel*Frame) : 0.095
Stream size : 4.04 GiB (69%)
Writing library : x265 3.2.1+1-b5c86a64bbbe:[Linux][GCC 9.3.0][64 bit] 10bit
Encoding settings : cpuid=1111039 / frame-threads=3 / wpp / no-pmode / no-pme / no-psnr / no-ssim / log-level=2 / input-csp=1 / input-res=1920x816 / interlace=0 / total-frames=0 / level-idc=0 / high-tier=1 / uhd-bd=0 / ref=3 / no-allow-non-conformance / no-repeat-headers / annexb / no-aud / no-hrd / info / hash=0 / no-temporal-layers / open-gop / min-keyint=24 / keyint=240 / gop-lookahead=0 / bframes=4 / b-adapt=2 / b-pyramid / bframe-bias=0 / rc-lookahead=20 / lookahead-slices=5 / scenecut=40 / radl=0 / no-splice / no-intra-refresh / ctu=64 / min-cu-size=8 / no-rect / no-amp / max-tu-size=32 / tu-inter-depth=1 / tu-intra-depth=1 / limit-tu=0 / rdoq-level=0 / dynamic-rd=0.00 / no-ssim-rd / signhide / no-tskip / nr-intra=0 / nr-inter=0 / no-constrained-intra / strong-intra-smoothing / max-merge=3 / limit-refs=1 / no-limit-modes / me=1 / subme=2 / merange=57 / temporal-mvp / no-hme / weightp / no-weightb / no-analyze-src-pics / deblock=0:0 / sao / no-sao-non-deblock / rd=3 / selective-sao=4 / early-skip / rskip / no-fast-intra / no-tskip-fast / no-cu-lossless / b-intra / no-splitrd-skip / rdpenalty=0 / psy-rd=2.00 / psy-rdoq=0.00 / no-rd-refine / no-lossless / cbqpoffs=0 / crqpoffs=0 / rc=crf / crf=19.0 / qcomp=0.60 / qpstep=4 / stats-write=0 / stats-read=0 / ipratio=1.40 / pbratio=1.30 / aq-mode=2 / aq-strength=1.00 / cutree / zone-count=0 / no-strict-cbr / qg-size=32 / no-rc-grain / qpmax=69 / qpmin=0 / no-const-vbv / sar=1 / overscan=0 / videoformat=5 / range=0 / colorprim=1 / transfer=1 / colormatrix=1 / chromaloc=0 / display-window=0 / cll=0,0 / min-luma=0 / max-luma=1023 / log2-max-poc-lsb=8 / vui-timing-info / vui-hrd-info / slices=1 / no-opt-qp-pps / no-opt-ref-list-length-pps / no-multi-pass-opt-rps / scenecut-bias=0.05 / no-opt-cu-delta-qp / no-aq-motion / no-hdr / no-hdr-opt / no-dhdr10-opt / no-idr-recovery-sei / analysis-reuse-level=5 / scale-factor=0 / refine-intra=0 / refine-inter=0 / refine-mv=1 / refine-ctu-distortion=0 / no-limit-sao / ctu-info=0 / no-lowpass-dct / refine-analysis-type=0 / copy-pic=1 / max-ausize-factor=1.0 / no-dynamic-refine / no-single-sei / no-hevc-aq / no-svt / no-field / qp-adaptation-range=1.00
Default : Yes
Forced : No
Color range : Limited
Color primaries : BT.709
Transfer characteristics : BT.709
Matrix coefficients : BT.709

Audio
ID : 2
Format : DTS
Format/Info : Digital Theater Systems
Codec ID : A_DTS
Duration : 2 h 41 min
Bit rate mode : Constant
Bit rate : 1 509 kb/s
Channel(s) : 6 channels
Channel layout : C L R Ls Rs LFE
Sampling rate : 48.0 kHz
Frame rate : 93.750 FPS (512 SPF)
Bit depth : 24 bits
Compression mode : Lossy
Stream size : 1.70 GiB (29%)
Title : English DTS 1509kbps
Language : English
Default : Yes
Forced : No

Trackers


Trackers history

Date
1 week ago 0 0 0
2 weeks ago 0 0 0
3 weeks ago 1 0 0

Files


Related

DLTitleUpCreatedSize💬
Enter The Void (2009) 1080p BlurayRip 10-bit x265 HEVC DTS [XannyFamily]
3 weeks ago 3 weeks ago 5.85 GBs 0 0 0 0
肥龙过江 国粤双语 Enter the Fat Dragon 2020 Web-dl 2160p(4K) H265 DD5 1-Amber
8 months ago 8 months ago 3.68 GBs 0 3 0 12
FC2 PPV 1053008 Enter the hotel and immediately off paco Asana 20-year-old mp4
1 year ago 1 year ago 628.18 MBs 0 0 3 0
Enter the Void (2009) 10-bit HEVC x265 1080p [XannyFamily] mkv
1 year ago 1 year ago 2.16 GBs 0 0 1 0
Enter The Moon-PLAZA
2 years ago 2 years ago 14.21 GBs 0 1 0 0
The Entertainer (1960) [BluRay] [1080p] [YTS AM]
2 years ago 2 years ago 1.63 GBs 0 119 23 792
The Entertainer (1960) [BluRay] [720p] [YTS AM]
2 years ago 2 years ago 858.07 MBs 0 68 14 668
Wu-Tang Clan- Enter The Wu-Tang (36 Chambers) [@320kbps]
2 years ago 50 years ago 134.1 MBs 0 114 1 64K
Transformers The Last Knight 2017 1080p IPTV HDRip H264 AAC-[ENTER] mkv
3 years ago 3 years ago 6.08 GBs 0 1306 872 2K
Journey to the Center of the Earth (2008)
3 years ago 8 years ago 601.17 MBs 0 2 1 68

Comments

Unidentified:




Magnet4You Torrentz2 PirateIro API Contact Torrent4You