BrowseTrendingLibraryHelp




Title:

The Dictator (2012) 1080p Bluray 10-bit x265 HEVC DTS AC3 5 1 [XannyFamily]

Health:

Seeders : 0 Leechers: 1 Peers : 1 Completed : 0

Update:

a week ago

Rating:

0 0 0

Created:

1 week ago

Uploaded:

1 week ago

Hash:

d267b579745cfde66536277c811da01828d37891

d267b579745cfde66536277c811da01828d37891

Size:

4 GBs

Download:

Views:

62

Tags:

The Dictator 2012 1080p Bluray 10 bit x265 HEVC DTS AC3 XannyFamily

Category:

movies

Share:

http://torrent4you.me/torrent/69322


Description

General
Unique ID : 260891127722251366463869080623447481512 (0xC445CDB2DD9E10A99F64800FE35F1CA8)
Complete name : /home/xannyfamily/Videos/The Dictator (2012) 1080p Bluray 10-bit x265 HEVC DTS AC3 5.1 [XannyFamily].mkv
Format : Matroska
Format version : Version 4
File size : 4.00 GiB
Duration : 1 h 38 min
Overall bit rate : 5 793 kb/s
Movie name : The Dictator (2012) 1080p Bluray 10-bit x265 HEVC DTS AC3 5.1 [XannyFamily]
Description : All kneel before the glory of XannyFamily!
Released date : 16 May 2012
Encoded date : UTC 2020-10-10 18:16:23
Writing application : HandBrake 1.3.3 2020061500
Writing library : Lavf58.29.100
ErrorDetectionType : Per level 1
ARTIST : Sacha Baron Cohen, Anna Faris, John C. Reilly
DIRECTOR : Larry Charles
GENRE : Comedy
SYNOPSIS : The heroic story of a dictator who risked his life to ensure that democracy would never come to the country he so lovingly oppressed.

Video
ID : 1
Format : HEVC
Format/Info : High Efficiency Video Coding
Format profile : Main [email protected]@Main
Codec ID : V_MPEGH/ISO/HEVC
Duration : 1 h 38 min
Bit rate : 3 784 kb/s
Width : 1 920 pixels
Height : 800 pixels
Display aspect ratio : 2.40:1
Frame rate mode : Constant
Frame rate : 23.976 (24000/1001) FPS
Color space : YUV
Chroma subsampling : 4:2:0
Bit depth : 10 bits
Bits/(Pixel*Frame) : 0.103
Stream size : 2.61 GiB (65%)
Writing library : x265 3.2.1+1-b5c86a64bbbe:[Linux][GCC 9.3.0][64 bit] 10bit
Encoding settings : cpuid=1111039 / frame-threads=3 / wpp / no-pmode / no-pme / no-psnr / no-ssim / log-level=2 / input-csp=1 / input-res=1920x800 / interlace=0 / total-frames=0 / level-idc=0 / high-tier=1 / uhd-bd=0 / ref=3 / no-allow-non-conformance / no-repeat-headers / annexb / no-aud / no-hrd / info / hash=0 / no-temporal-layers / open-gop / min-keyint=24 / keyint=240 / gop-lookahead=0 / bframes=4 / b-adapt=2 / b-pyramid / bframe-bias=0 / rc-lookahead=20 / lookahead-slices=5 / scenecut=40 / radl=0 / no-splice / no-intra-refresh / ctu=64 / min-cu-size=8 / no-rect / no-amp / max-tu-size=32 / tu-inter-depth=1 / tu-intra-depth=1 / limit-tu=0 / rdoq-level=0 / dynamic-rd=0.00 / no-ssim-rd / signhide / no-tskip / nr-intra=0 / nr-inter=0 / no-constrained-intra / strong-intra-smoothing / max-merge=3 / limit-refs=1 / no-limit-modes / me=1 / subme=2 / merange=57 / temporal-mvp / no-hme / weightp / no-weightb / no-analyze-src-pics / deblock=0:0 / sao / no-sao-non-deblock / rd=3 / selective-sao=4 / early-skip / rskip / no-fast-intra / no-tskip-fast / no-cu-lossless / b-intra / no-splitrd-skip / rdpenalty=0 / psy-rd=2.00 / psy-rdoq=0.00 / no-rd-refine / no-lossless / cbqpoffs=0 / crqpoffs=0 / rc=crf / crf=17.0 / qcomp=0.60 / qpstep=4 / stats-write=0 / stats-read=0 / ipratio=1.40 / pbratio=1.30 / aq-mode=2 / aq-strength=1.00 / cutree / zone-count=0 / no-strict-cbr / qg-size=32 / no-rc-grain / qpmax=69 / qpmin=0 / no-const-vbv / sar=1 / overscan=0 / videoformat=5 / range=0 / colorprim=1 / transfer=1 / colormatrix=1 / chromaloc=0 / display-window=0 / cll=0,0 / min-luma=0 / max-luma=1023 / log2-max-poc-lsb=8 / vui-timing-info / vui-hrd-info / slices=1 / no-opt-qp-pps / no-opt-ref-list-length-pps / no-multi-pass-opt-rps / scenecut-bias=0.05 / no-opt-cu-delta-qp / no-aq-motion / no-hdr / no-hdr-opt / no-dhdr10-opt / no-idr-recovery-sei / analysis-reuse-level=5 / scale-factor=0 / refine-intra=0 / refine-inter=0 / refine-mv=1 / refine-ctu-distortion=0 / no-limit-sao / ctu-info=0 / no-lowpass-dct / refine-analysis-type=0 / copy-pic=1 / max-ausize-factor=1.0 / no-dynamic-refine / no-single-sei / no-hevc-aq / no-svt / no-field / qp-adaptation-range=1.00
Default : Yes
Forced : No
Color range : Limited
Color primaries : BT.709
Transfer characteristics : BT.709
Matrix coefficients : BT.709

Audio #1
ID : 2
Format : DTS
Format/Info : Digital Theater Systems
Codec ID : A_DTS
Duration : 1 h 38 min
Bit rate mode : Constant
Bit rate : 1 509 kb/s
Channel(s) : 6 channels
Channel layout : C L R Ls Rs LFE
Sampling rate : 48.0 kHz
Frame rate : 93.750 FPS (512 SPF)
Bit depth : 24 bits
Compression mode : Lossy
Stream size : 1.04 GiB (26%)
Title : DTS Surround 5.1
Language : English
Default : Yes
Forced : No

Audio #2
ID : 3
Format : AC-3
Format/Info : Audio Coding 3
Commercial name : Dolby Digital
Codec ID : A_AC3
Duration : 1 h 38 min
Bit rate mode : Constant
Bit rate : 384 kb/s
Channel(s) : 6 channels
Channel layout : L R C LFE Ls Rs
Sampling rate : 48.0 kHz
Frame rate : 31.250 FPS (1536 SPF)
Compression mode : Lossy
Delay relative to video : -5 ms
Stream size : 271 MiB (7%)
Title : AC3 Surround 5.1 (Dolby Surround)
Language : English
Service kind : Complete Main
Default : No
Forced : No

Menu
00:00:00.000 : :00:00:00.000
00:09:41.164 : :00:09:41.039
00:14:36.918 : :00:14:36.876
00:22:35.771 : :00:22:35.771
00:27:06.208 : :00:27:06.208
00:32:42.377 : :00:32:42.377
00:38:42.278 : :00:38:42.278
00:45:23.554 : :00:45:23.554
00:49:48.277 : :00:49:48.277
01:01:58.465 : :01:01:58.464
01:09:39.759 : :01:09:39.759
01:16:51.732 : :01:16:51.732
01:21:51.907 : :01:21:51.907
01:28:48.740 : :01:28:48.656

Trackers


Trackers history

Date
1 week ago 0 1 0
1 week ago 0 0 0
1 week ago 0 0 0
1 week ago 0 0 0

Files


Related

DLTitleUpCreatedSize💬
The Dictator (2012) 1080p Bluray 10-bit x265 HEVC DTS AC3 5 1 [XannyFamily]
1 week ago 1 week ago 4 GBs 0 0 1 0
Charlie Chaplin - The Great Dictator (1940)
2 years ago 8 years ago 651.51 MBs 0 405 120 111K
The Great Dictator (1940) [BluRay] [1080p] [YTS AM]
2 years ago 2 years ago 1.97 GBs 0 365 222 2K
The Dictator (2012)
3 years ago 8 years ago 651.64 MBs 0 236 13 160K
The Dictator (2012) [1080p]
3 years ago 8 years ago 1.51 GBs 0 140 25 80K
[ Cpasbien com] The Dictator 2012 FRENCH BDRip XviD-Ulysse
3 years ago 8 years ago 698 MBs 0 35 1 7K

Comments

Unidentified:




Magnet4You Torrentz2 PirateIro API Contact Torrent4You