BrowseTrendingLibraryHelp




Title:

Fear and Loathing in Las Vegas (1998) 1080p Bluray 10-bit x265 HEVC DTS AC3 5 1 [XannyFamily]

Health:

Seeders : 1 Leechers: 0 Peers : 1 Completed : 0

Update:

2 weeks ago

Rating:

0 0 0

Created:

2 weeks ago

Uploaded:

2 weeks ago

Hash:

3d27febee3e137cac8bcaa8db1f0588e403df89d

3d27febee3e137cac8bcaa8db1f0588e403df89d

Size:

4.89 GBs

Download:

Views:

64

Tags:

Fear and Loathing in Las Vegas 1998 1080p Bluray 10 bit x265 HEVC DTS AC3 XannyFamily

Category:

movies

Share:

http://torrent4you.me/torrent/69364


Description

General
Unique ID : 128351833117569328853668806771021589512 (0x608FA9F4288EFB31C3C5184A18522C08)
Complete name : /Volumes/sammy/Fear and Loathing in Las Vegas (1998) 1080p Bluray 10-bit x265 HEVC DTS AC3 5.1 [XannyFamily].mkv
Format : Matroska
Format version : Version 4
File size : 4.89 GiB
Duration : 1 h 58 min
Overall bit rate : 5 931 kb/s
Movie name : Fear and Loathing in Las Vegas (1998) [XannyFamily]
Description : XannyFamily presents: a day in the life of Hunter S. Thompson
Released date : 22 May 1998
Encoded date : UTC 2020-10-13 13:55:38
Writing application : HandBrake 1.3.3 2020061500
Writing library : Lavf58.29.100
ErrorDetectionType : Per level 1
ARTIST : Johnny Depp, Benicio Del Toro, Tobey Maguire
DIRECTOR : Terry Gilliam
GENRE : Drugs
SUMMARY : We can't stop here, this is bat country!
SYNOPSIS : The big-screen version of Hunter S. Thompson's seminal psychedelic classic about his road trip across Western America as he and his large Samoan lawyer searched desperately for the "American dream"... they were helped in large part by the huge amount of drugs and alcohol kept in their convertible, The Red Shark.

Video
ID : 1
Format : HEVC
Format/Info : High Efficiency Video Coding
Format profile : Main [email protected]@Main
Codec ID : V_MPEGH/ISO/HEVC
Duration : 1 h 58 min
Bit rate : 4 080 kb/s
Width : 1 920 pixels
Height : 816 pixels
Display aspect ratio : 2.35:1
Frame rate mode : Constant
Frame rate : 23.976 (24000/1001) FPS
Color space : YUV
Chroma subsampling : 4:2:0
Bit depth : 10 bits
Bits/(Pixel*Frame) : 0.109
Stream size : 3.36 GiB (69%)
Writing library : x265 3.2.1+1-b5c86a64bbbe:[Linux][GCC 9.3.0][64 bit] 10bit
Encoding settings : cpuid=1111039 / frame-threads=3 / wpp / no-pmode / no-pme / no-psnr / no-ssim / log-level=2 / input-csp=1 / input-res=1920x816 / interlace=0 / total-frames=0 / level-idc=0 / high-tier=1 / uhd-bd=0 / ref=3 / no-allow-non-conformance / no-repeat-headers / annexb / no-aud / no-hrd / info / hash=0 / no-temporal-layers / open-gop / min-keyint=24 / keyint=240 / gop-lookahead=0 / bframes=4 / b-adapt=2 / b-pyramid / bframe-bias=0 / rc-lookahead=20 / lookahead-slices=5 / scenecut=40 / radl=0 / no-splice / no-intra-refresh / ctu=64 / min-cu-size=8 / no-rect / no-amp / max-tu-size=32 / tu-inter-depth=1 / tu-intra-depth=1 / limit-tu=0 / rdoq-level=0 / dynamic-rd=0.00 / no-ssim-rd / signhide / no-tskip / nr-intra=0 / nr-inter=0 / no-constrained-intra / strong-intra-smoothing / max-merge=3 / limit-refs=1 / no-limit-modes / me=1 / subme=2 / merange=57 / temporal-mvp / no-hme / weightp / no-weightb / no-analyze-src-pics / deblock=0:0 / sao / no-sao-non-deblock / rd=3 / selective-sao=4 / early-skip / rskip / no-fast-intra / no-tskip-fast / no-cu-lossless / b-intra / no-splitrd-skip / rdpenalty=0 / psy-rd=2.00 / psy-rdoq=0.00 / no-rd-refine / no-lossless / cbqpoffs=0 / crqpoffs=0 / rc=crf / crf=22.0 / qcomp=0.60 / qpstep=4 / stats-write=0 / stats-read=0 / ipratio=1.40 / pbratio=1.30 / aq-mode=2 / aq-strength=1.00 / cutree / zone-count=0 / no-strict-cbr / qg-size=32 / no-rc-grain / qpmax=69 / qpmin=0 / no-const-vbv / sar=1 / overscan=0 / videoformat=5 / range=0 / colorprim=1 / transfer=1 / colormatrix=1 / chromaloc=0 / display-window=0 / cll=0,0 / min-luma=0 / max-luma=1023 / log2-max-poc-lsb=8 / vui-timing-info / vui-hrd-info / slices=1 / no-opt-qp-pps / no-opt-ref-list-length-pps / no-multi-pass-opt-rps / scenecut-bias=0.05 / no-opt-cu-delta-qp / no-aq-motion / no-hdr / no-hdr-opt / no-dhdr10-opt / no-idr-recovery-sei / analysis-reuse-level=5 / scale-factor=0 / refine-intra=0 / refine-inter=0 / refine-mv=1 / refine-ctu-distortion=0 / no-limit-sao / ctu-info=0 / no-lowpass-dct / refine-analysis-type=0 / copy-pic=1 / max-ausize-factor=1.0 / no-dynamic-refine / no-single-sei / no-hevc-aq / no-svt / no-field / qp-adaptation-range=1.00
Default : Yes
Forced : No
Color range : Limited
Color primaries : BT.709
Transfer characteristics : BT.709
Matrix coefficients : BT.709

Audio #1
ID : 2
Format : DTS
Format/Info : Digital Theater Systems
Codec ID : A_DTS
Duration : 1 h 58 min
Bit rate mode : Constant
Bit rate : 1 509 kb/s
Channel(s) : 6 channels
Channel layout : C L R Ls Rs LFE
Sampling rate : 48.0 kHz
Frame rate : 93.750 FPS (512 SPF)
Bit depth : 24 bits
Compression mode : Lossy
Stream size : 1.24 GiB (25%)
Title : DTS Surround 5.1
Language : English
Default : Yes
Forced : No

Audio #2
ID : 3
Format : AC-3
Format/Info : Audio Coding 3
Commercial name : Dolby Digital
Codec ID : A_AC3
Duration : 1 h 58 min
Bit rate mode : Constant
Bit rate : 224 kb/s
Channel(s) : 6 channels
Channel layout : L R C LFE Ls Rs
Sampling rate : 48.0 kHz
Frame rate : 31.250 FPS (1536 SPF)
Compression mode : Lossy
Delay relative to video : -5 ms
Stream size : 189 MiB (4%)
Title : Dolby Surround 5.1 (AC3)
Language : English
Service kind : Complete Main
Default : No
Forced : No

Menu
00:00:00.000 : :Chapter 1
00:12:51.771 : :Chapter 2
00:19:46.936 : :Chapter 3
00:30:59.733 : :Chapter 4
00:38:56.668 : :Chapter 5
00:50:03.542 : :Chapter 6
01:01:24.848 : :Chapter 7
01:08:30.148 : :Chapter 8
01:17:37.820 : :Chapter 9
01:33:08.166 : :Chapter 10
01:41:46.183 : :Chapter 11
01:50:19.446 : :Chapter 12

Trackers


Trackers history

Date
2 weeks ago 1 0 0
2 weeks ago 0 0 0
2 weeks ago 0 0 0

Files


Related

DLTitleUpCreatedSize💬
Fear and Loathing in Las Vegas (1998) 1080p Bluray 10-bit x265 HEVC DTS AC3 5 1 [XannyFamily]
2 weeks ago 2 weeks ago 4.89 GBs 0 1 0 0
Fear, and Loathing in Las Vegas - HYPERTOUGHNESS
9 months ago 9 months ago 295.61 MBs 0 7 20 15
Fear Island (2009) [BluRay] [1080p] [YTS AM]
2 years ago 2 years ago 1.45 GBs 0 162 50 1K
Fear Island (2009) [BluRay] [720p] [YTS AM]
2 years ago 2 years ago 772.35 MBs 0 249 67 3K
Fear And Loathing In Las Vegas (1998)
3 years ago 8 years ago 652.21 MBs 0 131 22 74K

Comments

Unidentified:




Magnet4You Torrentz2 PirateIro API Contact Torrent4You