BrowseTrendingLibraryHelp




Title:

Layer Cake (2004) 1080p Bluray 10-bit x265 HEVC DTS AC3 5 1 [XannyFamily]

Health:

Seeders : 1 Leechers: 0 Peers : 1 Completed : 0

Update:

a week ago

Rating:

0 0 0

Created:

1 week ago

Uploaded:

1 week ago

Hash:

56434d4419450db61befa53a37f0fa4e59c659e5

56434d4419450db61befa53a37f0fa4e59c659e5

Size:

3.09 GBs

Download:

Views:

43

Tags:

Layer Cake 2004 1080p Bluray 10 bit x265 HEVC DTS AC3 XannyFamily

Category:

movies

Share:

http://torrent4you.me/torrent/69371

Comment:

Welcome to the layer cake, son.

Description

General
Unique ID : 260527437208012782350159825577978853218 (0xC3FFC25F369277AAA50E4FE664EB7762)
Complete name : /Volumes/sammy/Layer Cake (2004) 1080p Bluray 10-bit x265 HEVC DTS AC3 5.1 [XannyFamily].mkv
Format : Matroska
Format version : Version 4
File size : 3.09 GiB
Duration : 1 h 45 min
Overall bit rate : 4 200 kb/s
Movie name : Layer Cake (2004) 1080p Bluray HEVC [XannyFamily]
Description : British crime films are the best shh don't tell the Yanks
Released date : 1 October 2004
Encoded date : UTC 2020-10-13 19:29:43
Writing application : HandBrake 1.3.3 2020061500
Writing library : Lavf58.29.100
ErrorDetectionType : Per level 1
ARTIST : Daniel Craig, Sienna Miller, Michael Gambon
DIRECTOR : Matthew Vaughn
GENRE : Crime
SUMMARY : "The art of good business is being a good middleman"
SYNOPSIS : A successful cocaine dealer gets two tough assignments from his boss on the eve of his planned early retirement.

Video
ID : 1
Format : HEVC
Format/Info : High Efficiency Video Coding
Format profile : Main [email protected]@Main
Codec ID : V_MPEGH/ISO/HEVC
Duration : 1 h 45 min
Bit rate : 2 383 kb/s
Width : 1 920 pixels
Height : 800 pixels
Display aspect ratio : 2.40:1
Frame rate mode : Constant
Frame rate : 23.976 (24000/1001) FPS
Color space : YUV
Chroma subsampling : 4:2:0
Bit depth : 10 bits
Bits/(Pixel*Frame) : 0.065
Stream size : 1.75 GiB (57%)
Writing library : x265 3.2.1+1-b5c86a64bbbe:[Linux][GCC 9.3.0][64 bit] 10bit
Encoding settings : cpuid=1111039 / frame-threads=3 / wpp / no-pmode / no-pme / no-psnr / no-ssim / log-level=2 / input-csp=1 / input-res=1920x800 / interlace=0 / total-frames=0 / level-idc=0 / high-tier=1 / uhd-bd=0 / ref=3 / no-allow-non-conformance / no-repeat-headers / annexb / no-aud / no-hrd / info / hash=0 / no-temporal-layers / open-gop / min-keyint=24 / keyint=240 / gop-lookahead=0 / bframes=4 / b-adapt=2 / b-pyramid / bframe-bias=0 / rc-lookahead=20 / lookahead-slices=5 / scenecut=40 / radl=0 / no-splice / no-intra-refresh / ctu=64 / min-cu-size=8 / no-rect / no-amp / max-tu-size=32 / tu-inter-depth=1 / tu-intra-depth=1 / limit-tu=0 / rdoq-level=0 / dynamic-rd=0.00 / no-ssim-rd / signhide / no-tskip / nr-intra=0 / nr-inter=0 / no-constrained-intra / strong-intra-smoothing / max-merge=3 / limit-refs=1 / no-limit-modes / me=1 / subme=2 / merange=57 / temporal-mvp / no-hme / weightp / no-weightb / no-analyze-src-pics / deblock=0:0 / sao / no-sao-non-deblock / rd=3 / selective-sao=4 / early-skip / rskip / no-fast-intra / no-tskip-fast / no-cu-lossless / b-intra / no-splitrd-skip / rdpenalty=0 / psy-rd=2.00 / psy-rdoq=0.00 / no-rd-refine / no-lossless / cbqpoffs=0 / crqpoffs=0 / rc=crf / crf=21.0 / qcomp=0.60 / qpstep=4 / stats-write=0 / stats-read=0 / ipratio=1.40 / pbratio=1.30 / aq-mode=2 / aq-strength=1.00 / cutree / zone-count=0 / no-strict-cbr / qg-size=32 / no-rc-grain / qpmax=69 / qpmin=0 / no-const-vbv / sar=1 / overscan=0 / videoformat=5 / range=0 / colorprim=1 / transfer=1 / colormatrix=1 / chromaloc=0 / display-window=0 / cll=0,0 / min-luma=0 / max-luma=1023 / log2-max-poc-lsb=8 / vui-timing-info / vui-hrd-info / slices=1 / no-opt-qp-pps / no-opt-ref-list-length-pps / no-multi-pass-opt-rps / scenecut-bias=0.05 / no-opt-cu-delta-qp / no-aq-motion / no-hdr / no-hdr-opt / no-dhdr10-opt / no-idr-recovery-sei / analysis-reuse-level=5 / scale-factor=0 / refine-intra=0 / refine-inter=0 / refine-mv=1 / refine-ctu-distortion=0 / no-limit-sao / ctu-info=0 / no-lowpass-dct / refine-analysis-type=0 / copy-pic=1 / max-ausize-factor=1.0 / no-dynamic-refine / no-single-sei / no-hevc-aq / no-svt / no-field / qp-adaptation-range=1.00
Default : Yes
Forced : No
Color range : Limited
Color primaries : BT.709
Transfer characteristics : BT.709
Matrix coefficients : BT.709

Audio #1
ID : 2
Format : DTS
Format/Info : Digital Theater Systems
Codec ID : A_DTS
Duration : 1 h 45 min
Bit rate mode : Constant
Bit rate : 1 510 kb/s
Channel(s) : 6 channels
Channel layout : C L R Ls Rs LFE
Sampling rate : 48.0 kHz
Frame rate : 93.750 FPS (512 SPF)
Bit depth : 24 bits
Compression mode : Lossy
Stream size : 1.11 GiB (36%)
Title : DTS Surround 5.1
Language : English
Default : Yes
Forced : No

Audio #2
ID : 3
Format : AC-3
Format/Info : Audio Coding 3
Commercial name : Dolby Digital
Codec ID : A_AC3
Duration : 1 h 45 min
Bit rate mode : Constant
Bit rate : 224 kb/s
Channel(s) : 6 channels
Channel layout : L R C LFE Ls Rs
Sampling rate : 48.0 kHz
Frame rate : 31.250 FPS (1536 SPF)
Compression mode : Lossy
Delay relative to video : -5 ms
Stream size : 169 MiB (5%)
Title : Dolby Surround 5.1 (AC3)
Language : English
Service kind : Complete Main
Default : No
Forced : No

Trackers


Trackers history

Date
1 week ago 1 0 0
1 week ago 0 0 0
1 week ago 0 0 0

Files


Related

DLTitleUpCreatedSize💬
Layer Cake (2004) 1080p Bluray 10-bit x265 HEVC DTS AC3 5 1 [XannyFamily]
1 week ago 1 week ago 3.09 GBs 0 1 0 0

Comments

Unidentified:




Magnet4You Torrentz2 PirateIro API Contact Torrent4You