BrowseTrendingLibraryHelp




Title:

Jimi Hendrix The Road To Woodstock (2014) 720p WEBRIP x264 AAC 2 0 [XannyFamily]

Health:

Seeders : 1 Leechers: 1 Peers : 2 Completed : 0

Update:

2 weeks ago

Rating:

1 0 0

Created:

1 week ago

Uploaded:

1 week ago

Hash:

4ada87af84aa107ebde8a1333eff48c1a4ead786

4ada87af84aa107ebde8a1333eff48c1a4ead786

Size:

2.11 GBs

Download:

Views:

73

Tags:

Jimi Hendrix The Road To Woodstock 2014 720p WEBRIP x264 AAC XannyFamily

Category:

movies

Share:

http://torrent4you.me/torrent/69474

Comment:

XannyFamily <3

Description

General
Unique ID : 132583742740911952984608659416208480623 (0x63BEB3350F1895EF3C0ABD8CFEAD996F)
Complete name : /Volumes/sammy/Jimi Hendrix The Road To Woodstock (2014) 720p WEBRIP [XannyFamily].mkv
Format : Matroska
Format version : Version 4
File size : 2.11 GiB
Duration : 58 min 43 s
Overall bit rate : 5 135 kb/s
Movie name : Jimi Hendrix: The Road to Woodstock (2014) WEBRIP [XannyFamily]
Encoded date : UTC 2020-10-17 13:37:16
Writing application : mkvmerge v51.0.0 ('I Wish') 64-bit
Writing library : libebml v1.4.0 + libmatroska v1.6.2

Video
ID : 1
Format : AVC
Format/Info : Advanced Video Codec
Format profile : [email protected]
Format settings : CABAC / 4 Ref Frames
Format settings, CABAC : Yes
Format settings, Reference frames : 4 frames
Codec ID : V_MPEG4/ISO/AVC
Duration : 58 min 43 s
Bit rate : 5 004 kb/s
Width : 1 280 pixels
Height : 720 pixels
Display aspect ratio : 16:9
Frame rate mode : Constant
Frame rate : 50.000 FPS
Color space : YUV
Chroma subsampling : 4:2:0
Bit depth : 8 bits
Scan type : Progressive
Bits/(Pixel*Frame) : 0.109
Stream size : 2.05 GiB (97%)
Title : Jimi Hendrix: The Road to Woodstock (2014) WEBRIP [XannyFamily]
Language : English
Default : Yes
Forced : No
Color range : Limited
Color primaries : BT.709
Transfer characteristics : BT.709
Matrix coefficients : BT.709

Audio
ID : 2
Format : AAC LC
Format/Info : Advanced Audio Codec Low Complexity
Codec ID : A_AAC-2
Duration : 58 min 43 s
Bit rate : 128 kb/s
Channel(s) : 2 channels
Channel layout : L R
Sampling rate : 48.0 kHz
Frame rate : 46.875 FPS (1024 SPF)
Compression mode : Lossy
Stream size : 53.8 MiB (2%)
Language : English
Default : Yes
Forced : No

Trackers


Trackers history

Date
1 week ago 1 1 0
1 week ago 0 0 0
1 week ago 0 0 0

Files


Related

DLTitleUpCreatedSize💬
Jimi Hendrix The Road To Woodstock (2014) 720p WEBRIP x264 AAC 2 0 [XannyFamily]
1 week ago 1 week ago 2.11 GBs 0 1 1 0
Jimi Hendrix The Essential Jimi Hendrix VOL I and II [FLAC] CD
6 months ago 6 months ago 844.27 MBs 1 16 3 307
Jimi Hendrix - Voodoo Child Collection 2001 [EAC-FLAC](oan)
1 year ago 1 year ago 1 GB 0 29 41 72
Jimi Hendrix - Where No Guitarist Has Gone Before 1CD FLAC
1 year ago 1 year ago 491.62 MBs 0 33 3 218
Jimi Hendrix Experience [Purple Box] [EAC - FLAC] (oan)
1 year ago 1 year ago 1.82 GBs 0 80 22 593
The Jimi Hendrix Experience - 1968 - Electric Ladyland [2018 Legacy 50th Anniversary Deluxe Edition CD]
1 year ago 1 year ago 1.29 GBs 0 155 89 520
Jimi Hendrix at The Beeb 2008 ak320
1 year ago 1 year ago 184.45 MBs 0 91 14 529
Jimi Hendrix - Last American Concert Bootleg LP [24 96 FLAC] vinyl
2 years ago 2 years ago 901.33 MBs 0 36 9 300
Curtis Knight feat Jimi Hendrix You Can't Use My Name PPX
2 years ago 2 years ago 84.56 MBs 0 1 0 0
Jimi Hendrix Both Sides Of The Sky [2018] 320
2 years ago 2 years ago 150.48 MBs 0 1 9 0

Comments

Unidentified:




Magnet4You Torrentz2 PirateIro API Contact Torrent4You