BrowseTrendingLibraryHelp




Title:

Pineapple Express (2008) 1080p Bluray 10-bit x265 HEVC AC3 5 1 [XannyFamily]

Health:

Seeders : 23 Leechers: 4 Peers : 27 Completed : 57

Update:

3 weeks ago

Rating:

0 0 0

Created:

3 weeks ago

Uploaded:

3 weeks ago

Hash:

226a9f3af17722408514900debba72e0e6a46ac9

226a9f3af17722408514900debba72e0e6a46ac9

Size:

5.22 GBs

Download:

Views:

68

Tags:

Pineapple Express 2008 1080p Bluray 10 bit x265 HEVC AC3 5 XannyFamily

Category:

movies

Share:

http://torrent4you.me/torrent/69893

Comment:

XannyFamily <3

Description

General
Unique ID : 205914994782718505812497365280603768967 (0x9AE9C912ED0E97691B55F9D842D00887)
Complete name : /Volumes/sammy/Pineapple Express (2008) 1080p Bluray 10-bit x265 HEVC AC3 5.1 [XannyFamily].mkv
Format : Matroska
Format version : Version 4
File size : 5.22 GiB
Duration : 1 h 52 min
Overall bit rate : 6 678 kb/s
Movie name : Pineapple Express (2008) 1080p Bluray 10-bit x265 HEVC AC3 5.1 [XannyFamily]
Description : A film about weed with Seth Rogan, what more can I say?
Released date : 6 August 2008
Encoded date : UTC 2020-11-07 17:11:08
Writing application : HandBrake 1.3.3 2020061500
Writing library : Lavf58.29.100
ErrorDetectionType : Per level 1
ARTIST : Seth Rogen, James Franco, Gary Cole
DIRECTOR : David Gordon Green
GENRE : Stoner comedy
SYNOPSIS : A process server and his marijuana dealer wind up on the run from hitmen and a corrupt police officer after he witnesses his dealer's boss murder a competitor while trying to serve papers on him.

Video
ID : 1
Format : HEVC
Format/Info : High Efficiency Video Coding
Format profile : Main [email protected]@Main
Codec ID : V_MPEGH/ISO/HEVC
Duration : 1 h 52 min
Bit rate : 5 905 kb/s
Width : 1 920 pixels
Height : 802 pixels
Display aspect ratio : 2.40:1
Frame rate mode : Constant
Frame rate : 23.976 (24000/1001) FPS
Color space : YUV
Chroma subsampling : 4:2:0
Bit depth : 10 bits
Bits/(Pixel*Frame) : 0.160
Stream size : 4.62 GiB (88%)
Writing library : x265 3.2.1+1-b5c86a64bbbe:[Linux][GCC 9.3.0][64 bit] 10bit
Encoding settings : cpuid=1111039 / frame-threads=3 / wpp / no-pmode / no-pme / no-psnr / no-ssim / log-level=2 / input-csp=1 / input-res=1920x802 / interlace=0 / total-frames=0 / level-idc=0 / high-tier=1 / uhd-bd=0 / ref=3 / no-allow-non-conformance / no-repeat-headers / annexb / no-aud / no-hrd / info / hash=0 / no-temporal-layers / open-gop / min-keyint=24 / keyint=240 / gop-lookahead=0 / bframes=4 / b-adapt=2 / b-pyramid / bframe-bias=0 / rc-lookahead=20 / lookahead-slices=5 / scenecut=40 / radl=0 / no-splice / no-intra-refresh / ctu=64 / min-cu-size=8 / no-rect / no-amp / max-tu-size=32 / tu-inter-depth=1 / tu-intra-depth=1 / limit-tu=0 / rdoq-level=0 / dynamic-rd=0.00 / no-ssim-rd / signhide / no-tskip / nr-intra=0 / nr-inter=0 / no-constrained-intra / strong-intra-smoothing / max-merge=3 / limit-refs=1 / no-limit-modes / me=1 / subme=2 / merange=57 / temporal-mvp / no-hme / weightp / no-weightb / no-analyze-src-pics / deblock=0:0 / sao / no-sao-non-deblock / rd=3 / selective-sao=4 / early-skip / rskip / no-fast-intra / no-tskip-fast / no-cu-lossless / b-intra / no-splitrd-skip / rdpenalty=0 / psy-rd=2.00 / psy-rdoq=0.00 / no-rd-refine / no-lossless / cbqpoffs=0 / crqpoffs=0 / rc=crf / crf=19.0 / qcomp=0.60 / qpstep=4 / stats-write=0 / stats-read=0 / ipratio=1.40 / pbratio=1.30 / aq-mode=2 / aq-strength=1.00 / cutree / zone-count=0 / no-strict-cbr / qg-size=32 / no-rc-grain / qpmax=69 / qpmin=0 / no-const-vbv / sar=1 / overscan=0 / videoformat=5 / range=0 / colorprim=1 / transfer=1 / colormatrix=1 / chromaloc=0 / display-window=0 / cll=0,0 / min-luma=0 / max-luma=1023 / log2-max-poc-lsb=8 / vui-timing-info / vui-hrd-info / slices=1 / no-opt-qp-pps / no-opt-ref-list-length-pps / no-multi-pass-opt-rps / scenecut-bias=0.05 / no-opt-cu-delta-qp / no-aq-motion / no-hdr / no-hdr-opt / no-dhdr10-opt / no-idr-recovery-sei / analysis-reuse-level=5 / scale-factor=0 / refine-intra=0 / refine-inter=0 / refine-mv=1 / refine-ctu-distortion=0 / no-limit-sao / ctu-info=0 / no-lowpass-dct / refine-analysis-type=0 / copy-pic=1 / max-ausize-factor=1.0 / no-dynamic-refine / no-single-sei / no-hevc-aq / no-svt / no-field / qp-adaptation-range=1.00
Default : Yes
Forced : No
Color range : Limited
Color primaries : BT.709
Transfer characteristics : BT.709
Matrix coefficients : BT.709

Audio
ID : 2
Format : AC-3
Format/Info : Audio Coding 3
Commercial name : Dolby Digital
Codec ID : A_AC3
Duration : 1 h 52 min
Bit rate mode : Constant
Bit rate : 640 kb/s
Channel(s) : 6 channels
Channel layout : L R C LFE Ls Rs
Sampling rate : 48.0 kHz
Frame rate : 31.250 FPS (1536 SPF)
Compression mode : Lossy
Stream size : 513 MiB (10%)
Title : Dolby Digital Surround 5.1 (AC3)
Language : English
Service kind : Complete Main
Default : Yes
Forced : No

Text #1
ID : 3
Format : PGS
Codec ID : S_HDMV/PGS
Codec ID/Info : Picture based subtitle format used on BDs/HD-DVDs
Duration : 1 h 47 min
Title : Full English Subtitles
Language : English
Default : No
Forced : No

Text #2
ID : 4
Format : PGS
Codec ID : S_HDMV/PGS
Codec ID/Info : Picture based subtitle format used on BDs/HD-DVDs
Duration : 1 h 51 min
Title : Full French Subtitles
Language : French
Default : No
Forced : No

Text #3
ID : 5
Format : PGS
Codec ID : S_HDMV/PGS
Codec ID/Info : Picture based subtitle format used on BDs/HD-DVDs
Duration : 1 h 47 min
Title : Full Spanish Subtitles
Language : Spanish
Default : No
Forced : No

Menu
00:00:00.000 : :Chapter 1
00:04:07.539 : :Chapter 2
00:13:25.430 : :Chapter 3
00:20:30.938 : :Chapter 4
00:29:23.804 : :Chapter 5
00:37:56.691 : :Chapter 6
00:45:54.210 : :Chapter 7
00:53:58.402 : :Chapter 8
00:59:27.647 : :Chapter 9
01:06:36.117 : :Chapter 10
01:11:53.643 : :Chapter 11
01:16:07.354 : :Chapter 12
01:25:57.069 : :Chapter 13
01:33:26.309 : :Chapter 14
01:41:06.686 : :Chapter 15
01:43:57.732 : :Chapter 16

Trackers


Trackers history

Date
3 weeks ago 23 4 57
3 weeks ago 0 0 0
3 weeks ago 0 0 0

Files


Related

DLTitleUpCreatedSize💬
Pineapple Express (2008) 1080p Bluray 10-bit x265 HEVC AC3 5 1 [XannyFamily]
3 weeks ago 3 weeks ago 5.22 GBs 0 23 4 57
Pineapple Express UNRATED (2008)
3 years ago 8 years ago 750.73 MBs 0 208 19 133K
Pineapple Express UNRATED (2008) [1080p]
3 years ago 8 years ago 1.6 GBs 0 47 3 1K

Comments

Unidentified:




Magnet4You Torrentz2 PirateIro API Contact Torrent4You