BrowseTrendingLibraryHelp




Title:

Spectre (2015) 1080p Bluray 10-bit x265 HEVC DTS 5 1 [XannyFamily]

Health:

Seeders : 26 Leechers: 16 Peers : 42 Completed : 36

Update:

3 weeks ago

Rating:

0 0 0

Created:

3 weeks ago

Uploaded:

3 weeks ago

Hash:

9485c8060a829ba6ff58209e8e40ad45a8376bef

9485c8060a829ba6ff58209e8e40ad45a8376bef

Size:

5.35 GBs

Download:

Views:

114

Tags:

Spectre 2015 1080p Bluray 10 bit x265 HEVC DTS 1 XannyFamily

Category:

movies

Share:

http://torrent4you.me/torrent/69905

Comment:

Ripped and encoded by a secret organisation known only as the XannyFamily

Description

General
Unique ID : 296680453826213635657934513898443118802 (0xDF3293B5DE1DA36A9DAFFF1F0DE218D2)
Complete name : /Volumes/sammy/Spectre (2015) 1080p Bluray 10-bit x265 HEVC DTS 5.1 [XannyFamily].mkv
Format : Matroska
Format version : Version 4
File size : 5.35 GiB
Duration : 2 h 28 min
Overall bit rate : 5 174 kb/s
Movie name : Spectre (2015) 1080p Bluray 10-bit x265 HEVC DTS 5.1 [XannyFamily]
Description : Ripped and encoded by a secret organisation known only as the XannyFamily
Released date : 26 October 2015
Encoded date : UTC 2020-11-08 16:58:54
Writing application : HandBrake 1.3.3 2020061500
Writing library : Lavf58.29.100
ErrorDetectionType : Per level 1
ARTIST : Daniel Craig, Christoph Waltz, Léa Seydoux
DIRECTOR : Sam Mendes
GENRE : Action
SYNOPSIS : A cryptic message from James Bond's past sends him on a trail to uncover the existence of a sinister organisation named SPECTRE. With a new threat dawning, Bond learns the terrible truth about the author of all his pain in his most recent missions.

Video
ID : 1
Format : HEVC
Format/Info : High Efficiency Video Coding
Format profile : Main [email protected]@Main
Codec ID : V_MPEGH/ISO/HEVC
Duration : 2 h 28 min
Bit rate : 3 562 kb/s
Width : 1 920 pixels
Height : 806 pixels
Display aspect ratio : 2.40:1
Frame rate mode : Constant
Frame rate : 23.976 (24000/1001) FPS
Color space : YUV
Chroma subsampling : 4:2:0
Bit depth : 10 bits
Bits/(Pixel*Frame) : 0.096
Stream size : 3.68 GiB (69%)
Writing library : x265 3.2.1+1-b5c86a64bbbe:[Linux][GCC 9.3.0][64 bit] 10bit
Encoding settings : cpuid=1111039 / frame-threads=3 / wpp / no-pmode / no-pme / no-psnr / no-ssim / log-level=2 / input-csp=1 / input-res=1920x806 / interlace=0 / total-frames=0 / level-idc=0 / high-tier=1 / uhd-bd=0 / ref=3 / no-allow-non-conformance / no-repeat-headers / annexb / no-aud / no-hrd / info / hash=0 / no-temporal-layers / open-gop / min-keyint=24 / keyint=240 / gop-lookahead=0 / bframes=4 / b-adapt=2 / b-pyramid / bframe-bias=0 / rc-lookahead=20 / lookahead-slices=5 / scenecut=40 / radl=0 / no-splice / no-intra-refresh / ctu=64 / min-cu-size=8 / no-rect / no-amp / max-tu-size=32 / tu-inter-depth=1 / tu-intra-depth=1 / limit-tu=0 / rdoq-level=0 / dynamic-rd=0.00 / no-ssim-rd / signhide / no-tskip / nr-intra=0 / nr-inter=0 / no-constrained-intra / strong-intra-smoothing / max-merge=3 / limit-refs=1 / no-limit-modes / me=1 / subme=2 / merange=57 / temporal-mvp / no-hme / weightp / no-weightb / no-analyze-src-pics / deblock=0:0 / sao / no-sao-non-deblock / rd=3 / selective-sao=4 / early-skip / rskip / no-fast-intra / no-tskip-fast / no-cu-lossless / b-intra / no-splitrd-skip / rdpenalty=0 / psy-rd=2.00 / psy-rdoq=0.00 / no-rd-refine / no-lossless / cbqpoffs=0 / crqpoffs=0 / rc=crf / crf=19.0 / qcomp=0.60 / qpstep=4 / stats-write=0 / stats-read=0 / ipratio=1.40 / pbratio=1.30 / aq-mode=2 / aq-strength=1.00 / cutree / zone-count=0 / no-strict-cbr / qg-size=32 / no-rc-grain / qpmax=69 / qpmin=0 / no-const-vbv / sar=1 / overscan=0 / videoformat=5 / range=0 / colorprim=1 / transfer=1 / colormatrix=1 / chromaloc=0 / display-window=0 / cll=0,0 / min-luma=0 / max-luma=1023 / log2-max-poc-lsb=8 / vui-timing-info / vui-hrd-info / slices=1 / no-opt-qp-pps / no-opt-ref-list-length-pps / no-multi-pass-opt-rps / scenecut-bias=0.05 / no-opt-cu-delta-qp / no-aq-motion / no-hdr / no-hdr-opt / no-dhdr10-opt / no-idr-recovery-sei / analysis-reuse-level=5 / scale-factor=0 / refine-intra=0 / refine-inter=0 / refine-mv=1 / refine-ctu-distortion=0 / no-limit-sao / ctu-info=0 / no-lowpass-dct / refine-analysis-type=0 / copy-pic=1 / max-ausize-factor=1.0 / no-dynamic-refine / no-single-sei / no-hevc-aq / no-svt / no-field / qp-adaptation-range=1.00
Default : Yes
Forced : No
Color range : Limited
Color primaries : BT.709
Transfer characteristics : BT.709
Matrix coefficients : BT.709

Audio
ID : 2
Format : DTS
Format/Info : Digital Theater Systems
Codec ID : A_DTS
Duration : 2 h 28 min
Bit rate mode : Constant
Bit rate : 1 509 kb/s
Channel(s) : 6 channels
Channel layout : C L R Ls Rs LFE
Sampling rate : 48.0 kHz
Frame rate : 93.750 FPS (512 SPF)
Bit depth : 24 bits
Compression mode : Lossy
Stream size : 1.56 GiB (29%)
Title : DTS Core Audio Surround 5.1
Language : English
Default : Yes
Forced : No

Text #1
ID : 3
Format : PGS
Codec ID : S_HDMV/PGS
Codec ID/Info : Picture based subtitle format used on BDs/HD-DVDs
Duration : 2 h 20 min
Language : English
Default : No
Forced : No

Text #2
ID : 4
Format : PGS
Codec ID : S_HDMV/PGS
Codec ID/Info : Picture based subtitle format used on BDs/HD-DVDs
Duration : 2 h 27 min
Language : Spanish
Default : No
Forced : No

Text #3
ID : 5
Format : PGS
Codec ID : S_HDMV/PGS
Codec ID/Info : Picture based subtitle format used on BDs/HD-DVDs
Duration : 2 h 27 min
Language : French
Default : No
Forced : No

Text #4
ID : 6
Format : PGS
Codec ID : S_HDMV/PGS
Codec ID/Info : Picture based subtitle format used on BDs/HD-DVDs
Duration : 2 h 27 min
Language : Portuguese
Default : No
Forced : No

Menu
00:00:00.000 : :Chapter 1
00:06:09.119 : :Chapter 2
00:13:04.784 : :Chapter 3
00:18:58.471 : :Chapter 4
00:24:46.777 : :Chapter 5
00:28:04.099 : :Chapter 6
00:32:15.559 : :Chapter 7
00:36:58.717 : :Chapter 8
00:41:56.723 : :Chapter 9
00:46:13.271 : :Chapter 10
00:50:51.924 : :Chapter 11
00:53:43.220 : :Chapter 12
01:00:21.368 : :Chapter 13
01:06:48.213 : :Chapter 14
01:10:59.088 : :Chapter 15
01:15:14.093 : :Chapter 16
01:18:55.648 : :Chapter 17
01:26:11.041 : :Chapter 18
01:29:40.000 : :Chapter 19
01:36:43.548 : :Chapter 20
01:41:44.390 : :Chapter 21
01:49:06.415 : :Chapter 22
01:55:52.821 : :Chapter 23
01:59:39.214 : :Chapter 24
02:04:19.744 : :Chapter 25
02:09:28.511 : :Chapter 26
02:14:05.663 : :Chapter 27
02:19:42.374 : :Chapter 28

Trackers


Trackers history

Date
3 weeks ago 26 16 36
3 weeks ago 0 0 0
3 weeks ago 0 0 0

Files


Related

DLTitleUpCreatedSize💬
Spectre (2015) 1080p Bluray 10-bit x265 HEVC DTS 5 1 [XannyFamily]
3 weeks ago 3 weeks ago 5.35 GBs 0 26 16 36
Spectre 2015 1080p BluRay x265-RARBG
6 months ago 6 months ago 2.31 GBs 0 148 262 1K
Spectre 2015 1080p BluRay DTS Rus Ukr Eng HDCLUB mkv
3 years ago 4 years ago 18.98 GBs 0 0 1 0

Comments

Unidentified:




Magnet4You Torrentz2 PirateIro API Contact Torrent4You