BrowseTrendingLibraryHelp




Title:

Braindead (Dead Alive) (1992) 1080p Bluray 10-bit x265 HEVC DTS 2 0 [XannyFamily]

Health:

Seeders : 11 Leechers: 14 Peers : 25 Completed : 7

Update:

3 weeks ago

Rating:

0 0 0

Created:

3 weeks ago

Uploaded:

3 weeks ago

Hash:

7fa538f403d3aedba53e8f8b3f8cabd2dc87262f

7fa538f403d3aedba53e8f8b3f8cabd2dc87262f

Size:

6.84 GBs

Download:

Views:

173

Tags:

Braindead Dead Alive 1992 1080p Bluray 10 bit x265 HEVC DTS XannyFamily

Category:

movies

Share:

http://torrent4you.me/torrent/69923

Comment:

XannyFamily <3

Description

General
Unique ID : 234026931428983004742548265335742818522 (0xB00FF28F921390EEF1BF410D80F468DA)
Complete name : /Volumes/sammy/Braindead (1992) 1080p Bluray 10-bit x265 HEVC DTS 2.0 [XannyFamily].mkv
Format : Matroska
Format version : Version 4
File size : 6.84 GiB
Duration : 1 h 37 min
Overall bit rate : 10.1 Mb/s
Movie name : Braindead (1992) 1080p Bluray 10-bit x265 HEVC DTS 2.0 [XannyFamily]
Released date : 13 August 1992
Encoded date : UTC 2020-11-09 22:02:15
Writing application : HandBrake 1.3.3 2020061500
Writing library : Lavf58.29.100
ErrorDetectionType : Per level 1
ARTIST : Timothy Balme, Diana Peñalver, Elizabeth Moody
DIRECTOR : Peter Jackson
GENRE : Horror comedy
SYNOPSIS : A young man's mother is bitten by a Sumatran rat-monkey. She gets sick and dies, at which time she comes back to life, killing and eating dogs, nurses, friends, and neighbors.

Video
ID : 1
Format : HEVC
Format/Info : High Efficiency Video Coding
Format profile : Main [email protected]@Main
Codec ID : V_MPEGH/ISO/HEVC
Duration : 1 h 37 min
Bit rate : 8 366 kb/s
Width : 1 920 pixels
Height : 1 078 pixels
Display aspect ratio : 16:9
Frame rate mode : Constant
Frame rate : 23.976 (24000/1001) FPS
Color space : YUV
Chroma subsampling : 4:2:0
Bit depth : 10 bits
Bits/(Pixel*Frame) : 0.169
Stream size : 5.68 GiB (83%)
Writing library : x265 3.2.1+1-b5c86a64bbbe:[Linux][GCC 9.3.0][64 bit] 10bit
Encoding settings : cpuid=1111039 / frame-threads=3 / wpp / no-pmode / no-pme / no-psnr / no-ssim / log-level=2 / input-csp=1 / input-res=1920x1078 / interlace=0 / total-frames=0 / level-idc=0 / high-tier=1 / uhd-bd=0 / ref=3 / no-allow-non-conformance / no-repeat-headers / annexb / no-aud / no-hrd / info / hash=0 / no-temporal-layers / open-gop / min-keyint=24 / keyint=240 / gop-lookahead=0 / bframes=4 / b-adapt=2 / b-pyramid / bframe-bias=0 / rc-lookahead=20 / lookahead-slices=6 / scenecut=40 / radl=0 / no-splice / no-intra-refresh / ctu=64 / min-cu-size=8 / no-rect / no-amp / max-tu-size=32 / tu-inter-depth=1 / tu-intra-depth=1 / limit-tu=0 / rdoq-level=0 / dynamic-rd=0.00 / no-ssim-rd / signhide / no-tskip / nr-intra=0 / nr-inter=0 / no-constrained-intra / strong-intra-smoothing / max-merge=3 / limit-refs=1 / no-limit-modes / me=1 / subme=2 / merange=57 / temporal-mvp / no-hme / weightp / no-weightb / no-analyze-src-pics / deblock=0:0 / sao / no-sao-non-deblock / rd=3 / selective-sao=4 / early-skip / rskip / no-fast-intra / no-tskip-fast / no-cu-lossless / b-intra / no-splitrd-skip / rdpenalty=0 / psy-rd=2.00 / psy-rdoq=0.00 / no-rd-refine / no-lossless / cbqpoffs=0 / crqpoffs=0 / rc=crf / crf=19.0 / qcomp=0.60 / qpstep=4 / stats-write=0 / stats-read=0 / ipratio=1.40 / pbratio=1.30 / aq-mode=2 / aq-strength=1.00 / cutree / zone-count=0 / no-strict-cbr / qg-size=32 / no-rc-grain / qpmax=69 / qpmin=0 / no-const-vbv / sar=1 / overscan=0 / videoformat=5 / range=0 / colorprim=1 / transfer=1 / colormatrix=1 / chromaloc=0 / display-window=0 / cll=0,0 / min-luma=0 / max-luma=1023 / log2-max-poc-lsb=8 / vui-timing-info / vui-hrd-info / slices=1 / no-opt-qp-pps / no-opt-ref-list-length-pps / no-multi-pass-opt-rps / scenecut-bias=0.05 / no-opt-cu-delta-qp / no-aq-motion / no-hdr / no-hdr-opt / no-dhdr10-opt / no-idr-recovery-sei / analysis-reuse-level=5 / scale-factor=0 / refine-intra=0 / refine-inter=0 / refine-mv=1 / refine-ctu-distortion=0 / no-limit-sao / ctu-info=0 / no-lowpass-dct / refine-analysis-type=0 / copy-pic=1 / max-ausize-factor=1.0 / no-dynamic-refine / no-single-sei / no-hevc-aq / no-svt / no-field / qp-adaptation-range=1.00
Default : Yes
Forced : No
Color range : Limited
Color primaries : BT.709
Transfer characteristics : BT.709
Matrix coefficients : BT.709

Audio
ID : 2
Format : DTS
Format/Info : Digital Theater Systems
Codec ID : A_DTS
Duration : 1 h 37 min
Bit rate mode : Constant
Bit rate : 1 509 kb/s
Channel(s) : 2 channels
Channel layout : L R
Sampling rate : 48.0 kHz
Frame rate : 93.750 FPS (512 SPF)
Bit depth : 24 bits
Compression mode : Lossy
Stream size : 1.03 GiB (15%)
Title : DTS Core Audio Stereo 2.0
Language : English
Default : Yes
Forced : No

Menu
00:00:00.000 : :00:00:00.000
00:06:28.513 : :00:06:28.430
00:10:13.029 : :00:10:13.029
00:13:35.231 : :00:13:35.231
00:16:51.928 : :00:16:51.844
00:19:44.850 : :00:19:44.850
00:22:25.845 : :00:22:25.844
00:25:12.261 : :00:25:12.261
00:27:49.459 : :00:27:49.459
00:29:28.934 : :00:29:28.809
00:36:54.129 : :00:36:54.087
00:40:27.091 : :00:40:26.966
00:43:44.664 : :00:43:44.580
00:49:37.141 : :00:49:37.099
00:52:44.036 : :00:52:44.036
00:55:33.455 : :00:55:33.455
01:00:45.225 : :01:00:45.225
01:06:59.849 : :01:06:59.849
01:09:46.015 : :01:09:46.015
01:15:33.946 : :01:15:33.946
01:21:47.194 : :01:21:47.111
01:23:07.065 : :01:23:07.065
01:27:04.594 : :01:27:04.428
01:34:00.135 : :01:34:00.051

Trackers


Trackers history

Date
3 weeks ago 11 14 7
3 weeks ago 0 0 0
3 weeks ago 0 0 0

Files


Related

DLTitleUpCreatedSize💬
Braindead (Dead Alive) (1992) 1080p Bluray 10-bit x265 HEVC DTS 2 0 [XannyFamily]
3 weeks ago 3 weeks ago 6.84 GBs 0 11 14 7

Comments

Unidentified:




Magnet4You Torrentz2 PirateIro API Contact Torrent4You