BrowseTrendingLibraryHelp




Title:

Pulp Fiction (1994) 1080p Bluray 10-bit x265 HEVC DTS 5 1 [XannyFamily]

Health:

Seeders : 12 Leechers: 8 Peers : 20 Completed : 45

Update:

3 weeks ago

Rating:

0 0 0

Created:

3 weeks ago

Uploaded:

3 weeks ago

Hash:

4b52c8b27e03aa370964adbefa3b823e5d830df6

4b52c8b27e03aa370964adbefa3b823e5d830df6

Size:

4.35 GBs

Download:

Views:

173

Tags:

Pulp Fiction 1994 1080p Bluray 10 bit x265 HEVC DTS 5 XannyFamily

Category:

movies

Share:

http://torrent4you.me/torrent/69929

Comment:

DOES HE LOOK LIKE A BITCH???

Description

General
Unique ID : 259269989108175560819699453207067952758 (0xC30D9564DF4D794DC1877F621A370676)
Complete name : /Volumes/sammy/Pulp Fiction (1994) 1080p Bluray 10-bit x265 HEVC DTS 5.1 [XannyFamily].mkv
Format : Matroska
Format version : Version 4
File size : 4.35 GiB
Duration : 2 h 34 min
Overall bit rate : 4 015 kb/s
Movie name : Pulp Fiction (1994) 1080p Bluray 10-bit x265 HEVC DTS 5.1 [XannyFamily]
Description : ENGLISH MOTHERFUCKER! DO YOU SPEAK IT?
Released date : 21 May 1994
Encoded date : UTC 2020-11-09 11:38:38
Writing application : HandBrake 1.3.3 2020061500
Writing library : Lavf58.29.100
ErrorDetectionType : Per level 1
ARTIST : John Travolta, Samuel L. Jackson, Uma Thurman
DIRECTOR : Quentin Tarantino
GENRE : Neo-noir black comedy crime
SYNOPSIS : The lives of two mob hitmen, a boxer, a gangster and his wife, and a pair of diner bandits intertwine in four tales of violence and redemption.

Video
ID : 1
Format : HEVC
Format/Info : High Efficiency Video Coding
Format profile : Main [email protected]@Main
Codec ID : V_MPEGH/ISO/HEVC
Duration : 2 h 34 min
Bit rate : 2 426 kb/s
Width : 1 918 pixels
Height : 816 pixels
Display aspect ratio : 2.35:1
Frame rate mode : Constant
Frame rate : 23.976 (24000/1001) FPS
Color space : YUV
Chroma subsampling : 4:2:0
Bit depth : 10 bits
Bits/(Pixel*Frame) : 0.065
Stream size : 2.62 GiB (60%)
Writing library : x265 3.2.1+1-b5c86a64bbbe:[Linux][GCC 9.3.0][64 bit] 10bit
Encoding settings : cpuid=1111039 / frame-threads=3 / wpp / no-pmode / no-pme / no-psnr / no-ssim / log-level=2 / input-csp=1 / input-res=1918x816 / interlace=0 / total-frames=0 / level-idc=0 / high-tier=1 / uhd-bd=0 / ref=3 / no-allow-non-conformance / no-repeat-headers / annexb / no-aud / no-hrd / info / hash=0 / no-temporal-layers / open-gop / min-keyint=24 / keyint=240 / gop-lookahead=0 / bframes=4 / b-adapt=2 / b-pyramid / bframe-bias=0 / rc-lookahead=20 / lookahead-slices=5 / scenecut=40 / radl=0 / no-splice / no-intra-refresh / ctu=64 / min-cu-size=8 / no-rect / no-amp / max-tu-size=32 / tu-inter-depth=1 / tu-intra-depth=1 / limit-tu=0 / rdoq-level=0 / dynamic-rd=0.00 / no-ssim-rd / signhide / no-tskip / nr-intra=0 / nr-inter=0 / no-constrained-intra / strong-intra-smoothing / max-merge=3 / limit-refs=1 / no-limit-modes / me=1 / subme=2 / merange=57 / temporal-mvp / no-hme / weightp / no-weightb / no-analyze-src-pics / deblock=0:0 / sao / no-sao-non-deblock / rd=3 / selective-sao=4 / early-skip / rskip / no-fast-intra / no-tskip-fast / no-cu-lossless / b-intra / no-splitrd-skip / rdpenalty=0 / psy-rd=2.00 / psy-rdoq=0.00 / no-rd-refine / no-lossless / cbqpoffs=0 / crqpoffs=0 / rc=crf / crf=18.0 / qcomp=0.60 / qpstep=4 / stats-write=0 / stats-read=0 / ipratio=1.40 / pbratio=1.30 / aq-mode=2 / aq-strength=1.00 / cutree / zone-count=0 / no-strict-cbr / qg-size=32 / no-rc-grain / qpmax=69 / qpmin=0 / no-const-vbv / sar=1 / overscan=0 / videoformat=5 / range=0 / colorprim=1 / transfer=1 / colormatrix=1 / chromaloc=0 / display-window=0 / cll=0,0 / min-luma=0 / max-luma=1023 / log2-max-poc-lsb=8 / vui-timing-info / vui-hrd-info / slices=1 / no-opt-qp-pps / no-opt-ref-list-length-pps / no-multi-pass-opt-rps / scenecut-bias=0.05 / no-opt-cu-delta-qp / no-aq-motion / no-hdr / no-hdr-opt / no-dhdr10-opt / no-idr-recovery-sei / analysis-reuse-level=5 / scale-factor=0 / refine-intra=0 / refine-inter=0 / refine-mv=1 / refine-ctu-distortion=0 / no-limit-sao / ctu-info=0 / no-lowpass-dct / refine-analysis-type=0 / copy-pic=1 / max-ausize-factor=1.0 / no-dynamic-refine / no-single-sei / no-hevc-aq / no-svt / no-field / qp-adaptation-range=1.00
Default : Yes
Forced : No
Color range : Limited
Color primaries : BT.709
Transfer characteristics : BT.709
Matrix coefficients : BT.709

Audio
ID : 2
Format : DTS
Format/Info : Digital Theater Systems
Codec ID : A_DTS
Duration : 2 h 34 min
Bit rate mode : Constant
Bit rate : 1 509 kb/s
Channel(s) : 6 channels
Channel layout : C L R Ls Rs LFE
Sampling rate : 48.0 kHz
Frame rate : 93.750 FPS (512 SPF)
Bit depth : 24 bits
Compression mode : Lossy
Stream size : 1.63 GiB (38%)
Title : DTS Core Audio Surround 5.1
Language : English
Default : Yes
Forced : No

Text
ID : 3
Format : ASS
Codec ID : S_TEXT/ASS
Codec ID/Info : Advanced Sub Station Alpha
Duration : 2 h 29 min
Compression mode : Lossless
Language : English
Default : No
Forced : No

Trackers


Trackers history

Date
3 weeks ago 12 8 45
3 weeks ago 0 0 0

Files


Related

DLTitleUpCreatedSize💬
Pulp Fiction (1994) 1080p Bluray 10-bit x265 HEVC DTS 5 1 [XannyFamily]
3 weeks ago 3 weeks ago 4.35 GBs 0 12 8 45
Pulp Fiction 1994 720p BluRay H264 AAC-RARBG
2 years ago 2 years ago 1.87 GBs 0 2 0 1
Pulp Fiction (1994) [1080p]
3 years ago 8 years ago 1.4 GBs 0 0 0 0
Pulp Fiction (1994)
3 years ago 8 years ago 751.59 MBs 0 0 0 0
Pulp_Fiction_DVDRIP_FR_XVID_by_ALRDS avi
3 years ago 50 years ago 696.91 MBs 0 0 0 0

Comments

Unidentified:




Magnet4You Torrentz2 PirateIro API Contact Torrent4You