BrowseTrendingLibraryHelp




Title:

Baby Driver (2017) 1080p Bluray 10-bit x265 HEVC DTS 5 1 [XannyFamily]

Health:

Seeders : 32 Leechers: 54 Peers : 86 Completed : 66

Update:

3 weeks ago

Rating:

0 0 0

Created:

2 weeks ago

Uploaded:

2 weeks ago

Hash:

6289e5f317b1d8ac8bb0b85b9d7ba56622b7c1f2

6289e5f317b1d8ac8bb0b85b9d7ba56622b7c1f2

Size:

4.72 GBs

Download:

Views:

479

Tags:

Baby Driver 2017 1080p Bluray 10 bit x265 HEVC DTS 5 XannyFamily

Category:

movies

Share:

http://torrent4you.me/torrent/69938

Comment:

XannyFamily <3

Description

General
Unique ID : 128537338695573907266640003012522158466 (0x60B36415BABCCFD5DCA0B68EBC582982)
Complete name : /Volumes/sammy/Baby Driver (2017) 1080p Bluray 10-bit x265 HEVC DTS 5.1 [XannyFamily].mkv
Format : Matroska
Format version : Version 4
File size : 4.72 GiB
Duration : 1 h 52 min
Overall bit rate : 5 992 kb/s
Movie name : Baby Driver (2017) 1080p Bluray 10-bit x265 HEVC DTS 5.1 [XannyFamily]
Released date : 11 March 2017
Encoded date : UTC 2020-11-10 16:52:05
Writing application : HandBrake 1.3.3 2020061500
Writing library : Lavf58.29.100
ErrorDetectionType : Per level 1
ARTIST : Ansel Elgort, Jon Bernthal, Jon Hamm, Eiza González
DIRECTOR : Edgar Wright
GENRE : Action
SYNOPSIS : After being coerced into working for a crime boss, a young getaway driver finds himself taking part in a heist doomed to fail.

Video
ID : 1
Format : HEVC
Format/Info : High Efficiency Video Coding
Format profile : Main [email protected]@Main
Codec ID : V_MPEGH/ISO/HEVC
Duration : 1 h 52 min
Bit rate : 4 363 kb/s
Width : 1 920 pixels
Height : 804 pixels
Display aspect ratio : 2.40:1
Frame rate mode : Constant
Frame rate : 23.976 (24000/1001) FPS
Color space : YUV
Chroma subsampling : 4:2:0
Bit depth : 10 bits
Bits/(Pixel*Frame) : 0.118
Stream size : 3.43 GiB (73%)
Writing library : x265 3.2.1+1-b5c86a64bbbe:[Linux][GCC 9.3.0][64 bit] 10bit
Encoding settings : cpuid=1111039 / frame-threads=3 / wpp / no-pmode / no-pme / no-psnr / no-ssim / log-level=2 / input-csp=1 / input-res=1920x804 / interlace=0 / total-frames=0 / level-idc=0 / high-tier=1 / uhd-bd=0 / ref=3 / no-allow-non-conformance / no-repeat-headers / annexb / no-aud / no-hrd / info / hash=0 / no-temporal-layers / open-gop / min-keyint=24 / keyint=240 / gop-lookahead=0 / bframes=4 / b-adapt=2 / b-pyramid / bframe-bias=0 / rc-lookahead=20 / lookahead-slices=5 / scenecut=40 / radl=0 / no-splice / no-intra-refresh / ctu=64 / min-cu-size=8 / no-rect / no-amp / max-tu-size=32 / tu-inter-depth=1 / tu-intra-depth=1 / limit-tu=0 / rdoq-level=0 / dynamic-rd=0.00 / no-ssim-rd / signhide / no-tskip / nr-intra=0 / nr-inter=0 / no-constrained-intra / strong-intra-smoothing / max-merge=3 / limit-refs=1 / no-limit-modes / me=1 / subme=2 / merange=57 / temporal-mvp / no-hme / weightp / no-weightb / no-analyze-src-pics / deblock=0:0 / sao / no-sao-non-deblock / rd=3 / selective-sao=4 / early-skip / rskip / no-fast-intra / no-tskip-fast / no-cu-lossless / b-intra / no-splitrd-skip / rdpenalty=0 / psy-rd=2.00 / psy-rdoq=0.00 / no-rd-refine / no-lossless / cbqpoffs=0 / crqpoffs=0 / rc=crf / crf=18.0 / qcomp=0.60 / qpstep=4 / stats-write=0 / stats-read=0 / ipratio=1.40 / pbratio=1.30 / aq-mode=2 / aq-strength=1.00 / cutree / zone-count=0 / no-strict-cbr / qg-size=32 / no-rc-grain / qpmax=69 / qpmin=0 / no-const-vbv / sar=1 / overscan=0 / videoformat=5 / range=0 / colorprim=1 / transfer=1 / colormatrix=1 / chromaloc=0 / display-window=0 / cll=0,0 / min-luma=0 / max-luma=1023 / log2-max-poc-lsb=8 / vui-timing-info / vui-hrd-info / slices=1 / no-opt-qp-pps / no-opt-ref-list-length-pps / no-multi-pass-opt-rps / scenecut-bias=0.05 / no-opt-cu-delta-qp / no-aq-motion / no-hdr / no-hdr-opt / no-dhdr10-opt / no-idr-recovery-sei / analysis-reuse-level=5 / scale-factor=0 / refine-intra=0 / refine-inter=0 / refine-mv=1 / refine-ctu-distortion=0 / no-limit-sao / ctu-info=0 / no-lowpass-dct / refine-analysis-type=0 / copy-pic=1 / max-ausize-factor=1.0 / no-dynamic-refine / no-single-sei / no-hevc-aq / no-svt / no-field / qp-adaptation-range=1.00
Default : Yes
Forced : No
Color range : Limited
Color primaries : BT.709
Transfer characteristics : BT.709
Matrix coefficients : BT.709

Audio
ID : 2
Format : DTS
Format/Info : Digital Theater Systems
Codec ID : A_DTS
Duration : 1 h 52 min
Bit rate mode : Constant
Bit rate : 1 509 kb/s
Channel(s) : 6 channels
Channel layout : C L R Ls Rs LFE
Sampling rate : 48.0 kHz
Frame rate : 93.750 FPS (512 SPF)
Bit depth : 24 bits
Compression mode : Lossy
Stream size : 1.19 GiB (25%)
Title : DTS Core Audio Surround 5.1
Language : English
Default : Yes
Forced : No

Menu
00:00:00.000 : :00:00:00.000
00:09:11.051 : :00:09:11.050
00:13:30.601 : :00:13:30.476
00:20:58.174 : :00:20:58.174
00:25:17.599 : :00:25:17.599
00:33:07.903 : :00:33:07.903
00:43:43.246 : :00:43:43.246
00:48:15.643 : :00:48:15.643
00:53:39.550 : :00:53:39.550
00:58:51.903 : :00:58:51.903
01:05:23.628 : :01:05:23.545
01:11:34.081 : :01:11:34.081
01:19:17.044 : :01:19:17.002
01:30:30.800 : :01:30:30.675
01:38:04.170 : :01:38:04.170
01:43:30.413 : :01:43:30.413

Trackers


Trackers history

Date
2 weeks ago 32 54 66
2 weeks ago 0 0 0
2 weeks ago 0 0 0

Files


Related

DLTitleUpCreatedSize💬
Baby Driver (2017) 1080p Bluray 10-bit x265 HEVC DTS 5 1 [XannyFamily]
2 weeks ago 2 weeks ago 4.72 GBs 0 32 54 66
VA Baby Driver OST [FLAC] 2CD
2 years ago 2 years ago 639.63 MBs 0 41 13 419
Various - Baby Driver [soundtrack 2017 FLAC]
3 years ago 3 years ago 662.46 MBs 0 58 4 4K
Baby Driver Il Genio Della Fuga 2017 iTA ENG Bluray 1080p x264-Bymonello78 mkv
3 years ago 3 years ago 10.22 GBs 0 1 204 0
Baby_Driver_2017_HDRip_r5_[scarabey org] avi
3 years ago 3 years ago 1.45 GBs 0 1 1 2
Baby Driver 2017 BDRip 1 46Gb Dub MegaPeer
3 years ago 3 years ago 1.46 GBs 0 132 30 389
[ Torrent9 tv ] Baby Driver 2017 TRUEFRENCH BDRip XviD-GZR avi
3 years ago 3 years ago 700.3 MBs 0 1 18 0
Baby Driver DVDRip DivxTotaL com avi
3 years ago 3 years ago 1.18 GBs 0 1395 548 1K
Baby Driver 2017 1080p BluRay AVC DTS-HD MA 5 1-FGT
3 years ago 3 years ago 45.57 GBs 0 2 31 5
Baby Driver 2017 1080p BluRay AC3 6CH 3GB MkvCage mkv
3 years ago 3 years ago 3.02 GBs 0 0 2 0

Comments

Unidentified:




Magnet4You Torrentz2 PirateIro API Contact Torrent4You