BrowseTrendingLibraryHelp




Title:

Paul (Extended) (2011) 1080p Bluray 10-bit x265 HEVC DTS 5 1 [XannyFamily]

Health:

Seeders : 12 Leechers: 10 Peers : 22 Completed : 30

Update:

3 weeks ago

Rating:

0 0 0

Created:

3 weeks ago

Uploaded:

3 weeks ago

Hash:

65b9e947b0f6020161aea580134cfda567e6a08f

65b9e947b0f6020161aea580134cfda567e6a08f

Size:

3.5 GBs

Download:

Views:

100

Tags:

Paul Extended 2011 1080p Bluray 10 bit x265 HEVC DTS XannyFamily

Category:

movies

Share:

http://torrent4you.me/torrent/69940

Comment:

Three tits. That’s awesome.

Description

General
Unique ID : 229085831401767374157848987381743727926 (0xAC58538553958F22B9D5CB2BF8B3B536)
Complete name : /Volumes/sammy/Paul (Extended) (2011) 1080p Bluray 10-bit x265 HEVC DTS 5.1 [XannyFamily].mkv
Format : Matroska
Format version : Version 4
File size : 3.50 GiB
Duration : 1 h 49 min
Overall bit rate : 4 580 kb/s
Movie name : Paul (Extended) (2011) 1080p Bluray 10-bit x265 HEVC DTS 5.1 [XannyFamily]
Description : Ripped and encoded by the XannyFamily
Released date : 14 February 2011
Encoded date : UTC 2020-11-12 09:14:46
Writing application : mkvmerge v51.0.0 ('I Wish') 64-bit
Writing library : libebml v1.4.0 + libmatroska v1.6.2 / Lavf58.29.100
ARTIST : Simon Pegg, Nick Frost, Seth Rogan
DIRECTOR : Greg Mottola
GENRE : Comedy sci-fi
SYNOPSIS : Two English comic book geeks traveling across the U.S. encounter an alien outside Area 51. Lulz ensue.

Video
ID : 1
Format : HEVC
Format/Info : High Efficiency Video Coding
Format profile : Main [email protected]@Main
Codec ID : V_MPEGH/ISO/HEVC
Duration : 1 h 49 min
Bit rate : 3 054 kb/s
Width : 1 918 pixels
Height : 816 pixels
Display aspect ratio : 2.35:1
Frame rate mode : Constant
Frame rate : 23.976 (24000/1001) FPS
Color space : YUV
Chroma subsampling : 4:2:0
Bit depth : 10 bits
Bits/(Pixel*Frame) : 0.081
Stream size : 2.33 GiB (67%)
Writing library : x265 3.2.1+1-b5c86a64bbbe:[Linux][GCC 9.3.0][64 bit] 10bit
Encoding settings : cpuid=1111039 / frame-threads=3 / wpp / no-pmode / no-pme / no-psnr / no-ssim / log-level=2 / input-csp=1 / input-res=1918x816 / interlace=0 / total-frames=0 / level-idc=0 / high-tier=1 / uhd-bd=0 / ref=3 / no-allow-non-conformance / no-repeat-headers / annexb / no-aud / no-hrd / info / hash=0 / no-temporal-layers / open-gop / min-keyint=24 / keyint=240 / gop-lookahead=0 / bframes=4 / b-adapt=2 / b-pyramid / bframe-bias=0 / rc-lookahead=20 / lookahead-slices=5 / scenecut=40 / radl=0 / no-splice / no-intra-refresh / ctu=64 / min-cu-size=8 / no-rect / no-amp / max-tu-size=32 / tu-inter-depth=1 / tu-intra-depth=1 / limit-tu=0 / rdoq-level=0 / dynamic-rd=0.00 / no-ssim-rd / signhide / no-tskip / nr-intra=0 / nr-inter=0 / no-constrained-intra / strong-intra-smoothing / max-merge=3 / limit-refs=1 / no-limit-modes / me=1 / subme=2 / merange=57 / temporal-mvp / no-hme / weightp / no-weightb / no-analyze-src-pics / deblock=0:0 / sao / no-sao-non-deblock / rd=3 / selective-sao=4 / early-skip / rskip / no-fast-intra / no-tskip-fast / no-cu-lossless / b-intra / no-splitrd-skip / rdpenalty=0 / psy-rd=2.00 / psy-rdoq=0.00 / no-rd-refine / no-lossless / cbqpoffs=0 / crqpoffs=0 / rc=crf / crf=20.0 / qcomp=0.60 / qpstep=4 / stats-write=0 / stats-read=0 / ipratio=1.40 / pbratio=1.30 / aq-mode=2 / aq-strength=1.00 / cutree / zone-count=0 / no-strict-cbr / qg-size=32 / no-rc-grain / qpmax=69 / qpmin=0 / no-const-vbv / sar=1 / overscan=0 / videoformat=5 / range=0 / colorprim=1 / transfer=1 / colormatrix=1 / chromaloc=0 / display-window=0 / cll=0,0 / min-luma=0 / max-luma=1023 / log2-max-poc-lsb=8 / vui-timing-info / vui-hrd-info / slices=1 / no-opt-qp-pps / no-opt-ref-list-length-pps / no-multi-pass-opt-rps / scenecut-bias=0.05 / no-opt-cu-delta-qp / no-aq-motion / no-hdr / no-hdr-opt / no-dhdr10-opt / no-idr-recovery-sei / analysis-reuse-level=5 / scale-factor=0 / refine-intra=0 / refine-inter=0 / refine-mv=1 / refine-ctu-distortion=0 / no-limit-sao / ctu-info=0 / no-lowpass-dct / refine-analysis-type=0 / copy-pic=1 / max-ausize-factor=1.0 / no-dynamic-refine / no-single-sei / no-hevc-aq / no-svt / no-field / qp-adaptation-range=1.00
Default : Yes
Forced : No
Color range : Limited
Color primaries : BT.709
Transfer characteristics : BT.709
Matrix coefficients : BT.709

Audio
ID : 2
Format : DTS
Format/Info : Digital Theater Systems
Codec ID : A_DTS
Duration : 1 h 49 min
Bit rate mode : Constant
Bit rate : 1 509 kb/s
Channel(s) : 6 channels
Channel layout : C L R Ls Rs LFE
Sampling rate : 48.0 kHz
Frame rate : 93.750 FPS (512 SPF)
Bit depth : 24 bits
Compression mode : Lossy
Stream size : 1.15 GiB (33%)
Title : DTS Core Audio Surround 5.1
Language : English
Default : Yes
Forced : No

Text
ID : 3
Format : PGS
Muxing mode : zlib
Codec ID : S_HDMV/PGS
Codec ID/Info : Picture based subtitle format used on BDs/HD-DVDs
Duration : 1 h 43 min
Bit rate : 51.0 kb/s
Count of elements : 3883
Stream size : 37.6 MiB (1%)
Title : Full English subtitles
Language : English
Default : No
Forced : No

Menu
00:00:00.000 : :Chapter 1
00:05:41.424 : :Chapter 2
00:13:11.791 : :Chapter 3
00:19:07.355 : :Chapter 4
00:26:19.036 : :Chapter 5
00:31:34.059 : :Chapter 6
00:34:08.088 : :Chapter 7
00:39:42.672 : :Chapter 8
00:44:13.151 : :Chapter 9
00:47:44.487 : :Chapter 10
00:55:14.937 : :Chapter 11
01:00:51.898 : :Chapter 12
01:05:03.858 : :Chapter 13
01:11:37.460 : :Chapter 14
01:16:23.788 : :Chapter 15
01:23:24.458 : :Chapter 16
01:26:02.449 : :Chapter 17
01:32:11.317 : :Chapter 18
01:36:07.262 : :Chapter 19
01:41:07.395 : :Chapter 20

Trackers


Trackers history

Date
3 weeks ago 12 10 30
3 weeks ago 0 0 0

Files


Related

DLTitleUpCreatedSize💬
Paul (Extended) (2011) 1080p Bluray 10-bit x265 HEVC DTS 5 1 [XannyFamily]
3 weeks ago 3 weeks ago 3.5 GBs 0 12 10 30
Paul Extended (2011) 1080p BlurayRip 10-bit x265 HEVC DTS-HD DTS [XannyFamily]
1 month ago 1 month ago 6.37 GBs 0 1 0 0
RuPauls Drag Race S12E14 1080p WEB h264-SECRETOS[rarbg]
6 months ago 6 months ago 2.35 GBs 0 133 113 271
rupauls drag race s12e10 web x264-secretos[eztv] mkv
7 months ago 7 months ago 818.33 MBs 0 428 170 852
rupauls drag race untucked s12e10 720p web x264-secretos[eztv] mkv
7 months ago 7 months ago 445.26 MBs 0 327 102 697
Paul McCartney - Wingspan Hits And History (2001) [FLAC] vtwin88cube
7 months ago 7 months ago 967.77 MBs 0 23 8 341
The DNA of Murder with Paul Holes S01E10 480p x264-mSD[eztv] mkv
7 months ago 7 months ago 141.54 MBs 0 43 9 41
Xart - Paula Shy And Sugar Threesome [720p HD] mp4
8 months ago 6 months ago 525.01 MBs 0 37 194 139
Iron Maiden - Paul Di'Anno Hits (2018)
10 months ago 10 months ago 1.26 GBs 0 1 0 0
Paul Simon (2015) The Ultimate Collection [WAV+FLAC+mp3) Vipe
11 months ago 1 year ago 1.51 GBs 0 0 0 0

Comments

Unidentified:




Magnet4You Torrentz2 PirateIro API Contact Torrent4You