BrowseTrendingLibraryHelp




Title:

Hackers (1995) 1080p Bluray 10-bit x265 HEVC AC3 5 1 [XannyFamily]

Health:

Seeders : 17 Leechers: 7 Peers : 24 Completed : 30

Update:

3 weeks ago

Rating:

0 0 0

Created:

2 weeks ago

Uploaded:

2 weeks ago

Hash:

f95c6ea10ee8e4fb04efe6419dea6c860cf801fc

f95c6ea10ee8e4fb04efe6419dea6c860cf801fc

Size:

4.75 GBs

Download:

Views:

38

Tags:

Hackers 1995 1080p Bluray 10 bit x265 HEVC AC3 1 XannyFamily

Category:

movies

Share:

http://torrent4you.me/torrent/69947

Comment:

HACK THE PLANET!!!

Description

General
Unique ID : 115619374851452957020590822336302482246 (0x56FB7B4B4D6EFAE9413F3022249D0346)
Complete name : /Volumes/sammy/Hackers (1995) 1080p Bluray 10-bit x265 HEVC AC3 5.1 [XannyFamily].mkv
Format : Matroska
Format version : Version 4
File size : 4.75 GiB
Duration : 1 h 45 min
Overall bit rate : 6 459 kb/s
Movie name : Hackers (1995) 1080p Bluray 10-bit x265 HEVC AC3 5.1 [XannyFamily]
Description : A hilarious film for anyone who actually knows about computers
Released date : 15 September 1995
Encoded date : UTC 2020-11-11 03:09:11
Writing application : HandBrake 1.3.3 2020061500
Writing library : Lavf58.29.100
ErrorDetectionType : Per level 1
ARTIST : Jonny Lee Miller, Angelina Jolie, Jesse Bradford
DIRECTOR : Iain Softley
SYNOPSIS : Hackers are blamed for making a virus that will capsize five oil tankers.

Video
ID : 1
Format : HEVC
Format/Info : High Efficiency Video Coding
Format profile : Main [email protected]@Main
Codec ID : V_MPEGH/ISO/HEVC
Duration : 1 h 45 min
Bit rate : 5 691 kb/s
Width : 1 920 pixels
Height : 820 pixels
Display aspect ratio : 2.35:1
Frame rate mode : Constant
Frame rate : 23.976 (24000/1001) FPS
Color space : YUV
Chroma subsampling : 4:2:0
Bit depth : 10 bits
Bits/(Pixel*Frame) : 0.151
Stream size : 4.18 GiB (88%)
Writing library : x265 3.2.1+1-b5c86a64bbbe:[Linux][GCC 9.3.0][64 bit] 10bit
Encoding settings : cpuid=1111039 / frame-threads=3 / wpp / no-pmode / no-pme / no-psnr / no-ssim / log-level=2 / input-csp=1 / input-res=1920x820 / interlace=0 / total-frames=0 / level-idc=0 / high-tier=1 / uhd-bd=0 / ref=3 / no-allow-non-conformance / no-repeat-headers / annexb / no-aud / no-hrd / info / hash=0 / no-temporal-layers / open-gop / min-keyint=24 / keyint=240 / gop-lookahead=0 / bframes=4 / b-adapt=2 / b-pyramid / bframe-bias=0 / rc-lookahead=20 / lookahead-slices=5 / scenecut=40 / radl=0 / no-splice / no-intra-refresh / ctu=64 / min-cu-size=8 / no-rect / no-amp / max-tu-size=32 / tu-inter-depth=1 / tu-intra-depth=1 / limit-tu=0 / rdoq-level=0 / dynamic-rd=0.00 / no-ssim-rd / signhide / no-tskip / nr-intra=0 / nr-inter=0 / no-constrained-intra / strong-intra-smoothing / max-merge=3 / limit-refs=1 / no-limit-modes / me=1 / subme=2 / merange=57 / temporal-mvp / no-hme / weightp / no-weightb / no-analyze-src-pics / deblock=0:0 / sao / no-sao-non-deblock / rd=3 / selective-sao=4 / early-skip / rskip / no-fast-intra / no-tskip-fast / no-cu-lossless / b-intra / no-splitrd-skip / rdpenalty=0 / psy-rd=2.00 / psy-rdoq=0.00 / no-rd-refine / no-lossless / cbqpoffs=0 / crqpoffs=0 / rc=crf / crf=19.0 / qcomp=0.60 / qpstep=4 / stats-write=0 / stats-read=0 / ipratio=1.40 / pbratio=1.30 / aq-mode=2 / aq-strength=1.00 / cutree / zone-count=0 / no-strict-cbr / qg-size=32 / no-rc-grain / qpmax=69 / qpmin=0 / no-const-vbv / sar=1 / overscan=0 / videoformat=5 / range=0 / colorprim=1 / transfer=1 / colormatrix=1 / chromaloc=0 / display-window=0 / cll=0,0 / min-luma=0 / max-luma=1023 / log2-max-poc-lsb=8 / vui-timing-info / vui-hrd-info / slices=1 / no-opt-qp-pps / no-opt-ref-list-length-pps / no-multi-pass-opt-rps / scenecut-bias=0.05 / no-opt-cu-delta-qp / no-aq-motion / no-hdr / no-hdr-opt / no-dhdr10-opt / no-idr-recovery-sei / analysis-reuse-level=5 / scale-factor=0 / refine-intra=0 / refine-inter=0 / refine-mv=1 / refine-ctu-distortion=0 / no-limit-sao / ctu-info=0 / no-lowpass-dct / refine-analysis-type=0 / copy-pic=1 / max-ausize-factor=1.0 / no-dynamic-refine / no-single-sei / no-hevc-aq / no-svt / no-field / qp-adaptation-range=1.00
Default : Yes
Forced : No
Color range : Limited
Color primaries : BT.709
Transfer characteristics : BT.709
Matrix coefficients : BT.709

Audio
ID : 2
Format : AC-3
Format/Info : Audio Coding 3
Commercial name : Dolby Digital
Codec ID : A_AC3
Duration : 1 h 45 min
Bit rate mode : Constant
Bit rate : 640 kb/s
Channel(s) : 6 channels
Channel layout : L R C LFE Ls Rs
Sampling rate : 48.0 kHz
Frame rate : 31.250 FPS (1536 SPF)
Compression mode : Lossy
Delay relative to video : -5 ms
Stream size : 482 MiB (10%)
Title : Dolby Digital Surround 5.1 (AC3)
Language : English
Service kind : Complete Main
Default : Yes
Forced : No

Menu
00:00:00.000 : :00:00:00.000
00:04:52.835 : :00:04:52.833
00:10:11.612 : :00:10:11.583
00:15:00.444 : :00:15:00.417
00:18:50.883 : :00:18:50.875
00:25:39.709 : :00:25:39.708
00:30:09.938 : :00:30:09.917
00:33:41.233 : :00:33:41.208
00:39:39.134 : :00:39:39.000
00:44:10.280 : :00:44:10.250
00:49:25.554 : :00:49:25.542
00:54:23.978 : :00:54:23.958
00:58:24.428 : :00:58:24.417
01:04:39.679 : :01:04:39.667
01:09:02.525 : :01:09:02.500
01:14:36.234 : :01:14:36.208
01:22:13.026 : :01:22:13.000
01:29:16.951 : :01:29:16.917
01:33:54.479 : :01:33:54.458
01:38:34.261 : :01:38:34.250

Trackers


Trackers history

Date
2 weeks ago 17 7 30
2 weeks ago 0 0 0

Files


Related

DLTitleUpCreatedSize💬
Hackers (1995) 1080p Bluray 10-bit x265 HEVC AC3 5 1 [XannyFamily]
2 weeks ago 2 weeks ago 4.75 GBs 0 17 7 30
Private Gold 231 Russian Hackers XXX iNTERNAL 720p WEBRiP MP4-GUSH
1 year ago 1 year ago 3.95 GBs 0 344 380 1K
The Complete Cyber Security Course, Hacking Exposed Become a Cyber Security Specialist, Learn How to Stop Hackers, Prevent Hacking
3 years ago 3 years ago 40.84 MBs 0 118 33 353
Hacking the Hacker - Learn From the Experts Who Take Down Hackers (2017) (Epub) Gooner
3 years ago 3 years ago 883.29 KBs 0 113 10 530
Hacking for Beginners The Ultimate Guide For Newbie Hackers (2016) [WWRG]
3 years ago 4 years ago 396.13 KBs 0 47 1 510

Comments

Unidentified:




Magnet4You Torrentz2 PirateIro API Contact Torrent4You