BrowseTrendingLibraryHelp




Title:

Drugstore Cowboy (1989) 1080p Bluray 10-bit x265 HEVC DTS 2 0 [XannyFamily]

Health:

Seeders : 8 Leechers: 12 Peers : 20 Completed : 10

Update:

3 weeks ago

Rating:

0 0 0

Created:

2 weeks ago

Uploaded:

2 weeks ago

Hash:

eef9a3f8a3b1462dbbedf7445dc9acf9d551d2d0

eef9a3f8a3b1462dbbedf7445dc9acf9d551d2d0

Size:

6.14 GBs

Download:

Views:

65

Tags:

Drugstore Cowboy 1989 1080p Bluray 10 bit x265 HEVC DTS 2 XannyFamily

Category:

movies

Share:

http://torrent4you.me/torrent/69984

Comment:

“Narcotics have been systematically scapegoated and demonized. I predict, in the near future, right-wingers will use drug hysteria as a pretext to set up an international police apparatus.”

Description

General
Unique ID : 214516671105063152129097270787752691829 (0xA1626875A5A282A4472BE9432E698875)
Complete name : /Volumes/sammy/Drugstore Cowboy (1989) 1080p Bluray 10-bit x265 HEVC DTS 2.0 [XannyFamily].mkv
Format : Matroska
Format version : Version 4
File size : 6.14 GiB
Duration : 1 h 41 min
Overall bit rate : 8 667 kb/s
Movie name : Drugstore Cowboy (1989) 1080p Bluray 10-bit x265 HEVC DTS 2.0 [XannyFamily]
Description : All these rappers overhyping codeine... Dilaudid that's real drugs.
Released date : 6 October 1989
Encoded date : UTC 2020-11-11 21:05:59
Writing application : HandBrake 1.3.3 2020061500
Writing library : Lavf58.29.100
ErrorDetectionType : Per level 1
ARTIST : Matt Dillon, Kelly Lynch, James Le Gros, William S. Burroughs
DIRECTOR : Gus Van Sant
GENRE : Crime drama/drug culture
SUMMARY : One of the best drug films of all time
SYNOPSIS : A pharmacy-robbing dope fiend and his crew pop pills and evade the law.

Video
ID : 1
Format : HEVC
Format/Info : High Efficiency Video Coding
Format profile : Main [email protected]@Main
Codec ID : V_MPEGH/ISO/HEVC
Duration : 1 h 41 min
Bit rate : 7 535 kb/s
Width : 1 920 pixels
Height : 1 080 pixels
Display aspect ratio : 16:9
Frame rate mode : Constant
Frame rate : 23.976 (24000/1001) FPS
Color space : YUV
Chroma subsampling : 4:2:0
Bit depth : 10 bits
Bits/(Pixel*Frame) : 0.152
Stream size : 5.34 GiB (87%)
Writing library : x265 3.2.1+1-b5c86a64bbbe:[Linux][GCC 9.3.0][64 bit] 10bit
Encoding settings : cpuid=1111039 / frame-threads=3 / wpp / no-pmode / no-pme / no-psnr / no-ssim / log-level=2 / input-csp=1 / input-res=1920x1080 / interlace=0 / total-frames=0 / level-idc=0 / high-tier=1 / uhd-bd=0 / ref=3 / no-allow-non-conformance / no-repeat-headers / annexb / no-aud / no-hrd / info / hash=0 / no-temporal-layers / open-gop / min-keyint=24 / keyint=240 / gop-lookahead=0 / bframes=4 / b-adapt=2 / b-pyramid / bframe-bias=0 / rc-lookahead=20 / lookahead-slices=6 / scenecut=40 / radl=0 / no-splice / no-intra-refresh / ctu=64 / min-cu-size=8 / no-rect / no-amp / max-tu-size=32 / tu-inter-depth=1 / tu-intra-depth=1 / limit-tu=0 / rdoq-level=0 / dynamic-rd=0.00 / no-ssim-rd / signhide / no-tskip / nr-intra=0 / nr-inter=0 / no-constrained-intra / strong-intra-smoothing / max-merge=3 / limit-refs=1 / no-limit-modes / me=1 / subme=2 / merange=57 / temporal-mvp / no-hme / weightp / no-weightb / no-analyze-src-pics / deblock=0:0 / sao / no-sao-non-deblock / rd=3 / selective-sao=4 / early-skip / rskip / no-fast-intra / no-tskip-fast / no-cu-lossless / b-intra / no-splitrd-skip / rdpenalty=0 / psy-rd=2.00 / psy-rdoq=0.00 / no-rd-refine / no-lossless / cbqpoffs=0 / crqpoffs=0 / rc=crf / crf=20.0 / qcomp=0.60 / qpstep=4 / stats-write=0 / stats-read=0 / ipratio=1.40 / pbratio=1.30 / aq-mode=2 / aq-strength=1.00 / cutree / zone-count=0 / no-strict-cbr / qg-size=32 / no-rc-grain / qpmax=69 / qpmin=0 / no-const-vbv / sar=1 / overscan=0 / videoformat=5 / range=0 / colorprim=1 / transfer=1 / colormatrix=1 / chromaloc=0 / display-window=0 / cll=0,0 / min-luma=0 / max-luma=1023 / log2-max-poc-lsb=8 / vui-timing-info / vui-hrd-info / slices=1 / no-opt-qp-pps / no-opt-ref-list-length-pps / no-multi-pass-opt-rps / scenecut-bias=0.05 / no-opt-cu-delta-qp / no-aq-motion / no-hdr / no-hdr-opt / no-dhdr10-opt / no-idr-recovery-sei / analysis-reuse-level=5 / scale-factor=0 / refine-intra=0 / refine-inter=0 / refine-mv=1 / refine-ctu-distortion=0 / no-limit-sao / ctu-info=0 / no-lowpass-dct / refine-analysis-type=0 / copy-pic=1 / max-ausize-factor=1.0 / no-dynamic-refine / no-single-sei / no-hevc-aq / no-svt / no-field / qp-adaptation-range=1.00
Default : Yes
Forced : No
Color range : Limited
Color primaries : BT.709
Transfer characteristics : BT.709
Matrix coefficients : BT.709

Audio
ID : 2
Format : DTS
Format/Info : Digital Theater Systems
Codec ID : A_DTS
Duration : 1 h 41 min
Bit rate mode : Constant
Bit rate : 960 kb/s
Channel(s) : 2 channels
Channel layout : L R
Sampling rate : 48.0 kHz
Frame rate : 93.750 FPS (512 SPF)
Bit depth : 16 bits
Compression mode : Lossy
Stream size : 697 MiB (11%)
Title : DTS Core Audio Stereo 2.0
Language : English
Default : Yes
Forced : No

Text
ID : 3
Format : PGS
Codec ID : S_HDMV/PGS
Codec ID/Info : Picture based subtitle format used on BDs/HD-DVDs
Duration : 1 h 37 min
Language : Spanish
Default : No
Forced : No

Menu
00:00:00.000 : :Chapter 1
00:08:45.066 : :Chapter 2
00:22:42.403 : :Chapter 3
00:36:16.424 : :Chapter 4
00:48:52.638 : :Chapter 5
01:00:18.532 : :Chapter 6
01:10:53.875 : :Chapter 7
01:23:45.521 : :Chapter 8

Trackers


Trackers history

Date
2 weeks ago 8 12 10
2 weeks ago 0 0 0
2 weeks ago 0 0 0

Files


Related

DLTitleUpCreatedSize💬
Drugstore Cowboy (1989) 1080p Bluray 10-bit x265 HEVC DTS 2 0 [XannyFamily]
2 weeks ago 2 weeks ago 6.14 GBs 0 8 12 10
Drugstore Cowboy (1989) 1080p PROPER Bluray 10-bit x265 HEVC DTS-HD EAC3 2 0 [XannyFamily]
1 month ago 1 month ago 9.03 GBs 0 13 24 17
Drugstore Cowboy (1989) 720p 10-bit HEVC H265 [XannyFamily] mkv
1 year ago 1 year ago 1.51 GBs 0 1 1 0

Comments

Unidentified:




Magnet4You Torrentz2 PirateIro API Contact Torrent4You