BrowseTrendingLibraryHelp




Title:

Death at a Funeral (2007) 1080p Bluray 10-bit x265 HEVC AC3 5 1 [XannyFamily]

Health:

Seeders : 2 Leechers: 3 Peers : 5 Completed : 44

Update:

3 weeks ago

Rating:

0 0 0

Created:

2 weeks ago

Uploaded:

2 weeks ago

Hash:

980671656e432f76e4300c994db5bb005bb7e601

980671656e432f76e4300c994db5bb005bb7e601

Size:

3.07 GBs

Download:

Views:

67

Tags:

Death at Funeral 2007 1080p Bluray 10 bit x265 HEVC AC3 XannyFamily

Category:

movies

Share:

http://torrent4you.me/torrent/69991

Comment:

XannyFamily <3

Description

General
Unique ID : 157200056646036532080703378106088585259 (0x7643A12FC90F25D60E5540FA33F2782B)
Complete name : /Volumes/sammy/Death at a Funeral (2007) 1080p Bluray 10-bit x265 HEVC AC3 5.1 [XannyFamily].mkv
Format : Matroska
Format version : Version 4
File size : 3.07 GiB
Duration : 1 h 30 min
Overall bit rate : 4 834 kb/s
Movie name : Death at a Funeral (2007) 1080p Bluray 10-bit x265 HEVC AC3 5.1 [XannyFamily]
Description : The original British one, not the shitty American remake
Released date : 17 August 2007
Encoded date : UTC 2020-11-11 17:40:52
Writing application : HandBrake 1.3.3 2020061500
Writing library : Lavf58.29.100
ErrorDetectionType : Per level 1
ARTIST : Matthew Macfadyen, Peter Dinklage, Ewen Bremner
DIRECTOR : Frank Oz
GENRE : Black comedy
SYNOPSIS : Chaos ensues when a man tries to expose a dark secret regarding a recently deceased patriarch of a dysfunctional British family.

Video
ID : 1
Format : HEVC
Format/Info : High Efficiency Video Coding
Format profile : Main [email protected]@Main
Codec ID : V_MPEGH/ISO/HEVC
Duration : 1 h 30 min
Bit rate : 4 098 kb/s
Width : 1 920 pixels
Height : 1 036 pixels
Display aspect ratio : 1.85:1
Frame rate mode : Constant
Frame rate : 23.976 (24000/1001) FPS
Color space : YUV
Chroma subsampling : 4:2:0
Bit depth : 10 bits
Bits/(Pixel*Frame) : 0.086
Stream size : 2.60 GiB (85%)
Writing library : x265 3.2.1+1-b5c86a64bbbe:[Linux][GCC 9.3.0][64 bit] 10bit
Encoding settings : cpuid=1111039 / frame-threads=3 / wpp / no-pmode / no-pme / no-psnr / no-ssim / log-level=2 / input-csp=1 / input-res=1920x1036 / interlace=0 / total-frames=0 / level-idc=0 / high-tier=1 / uhd-bd=0 / ref=3 / no-allow-non-conformance / no-repeat-headers / annexb / no-aud / no-hrd / info / hash=0 / no-temporal-layers / open-gop / min-keyint=24 / keyint=240 / gop-lookahead=0 / bframes=4 / b-adapt=2 / b-pyramid / bframe-bias=0 / rc-lookahead=20 / lookahead-slices=6 / scenecut=40 / radl=0 / no-splice / no-intra-refresh / ctu=64 / min-cu-size=8 / no-rect / no-amp / max-tu-size=32 / tu-inter-depth=1 / tu-intra-depth=1 / limit-tu=0 / rdoq-level=0 / dynamic-rd=0.00 / no-ssim-rd / signhide / no-tskip / nr-intra=0 / nr-inter=0 / no-constrained-intra / strong-intra-smoothing / max-merge=3 / limit-refs=1 / no-limit-modes / me=1 / subme=2 / merange=57 / temporal-mvp / no-hme / weightp / no-weightb / no-analyze-src-pics / deblock=0:0 / sao / no-sao-non-deblock / rd=3 / selective-sao=4 / early-skip / rskip / no-fast-intra / no-tskip-fast / no-cu-lossless / b-intra / no-splitrd-skip / rdpenalty=0 / psy-rd=2.00 / psy-rdoq=0.00 / no-rd-refine / no-lossless / cbqpoffs=0 / crqpoffs=0 / rc=crf / crf=20.0 / qcomp=0.60 / qpstep=4 / stats-write=0 / stats-read=0 / ipratio=1.40 / pbratio=1.30 / aq-mode=2 / aq-strength=1.00 / cutree / zone-count=0 / no-strict-cbr / qg-size=32 / no-rc-grain / qpmax=69 / qpmin=0 / no-const-vbv / sar=1 / overscan=0 / videoformat=5 / range=0 / colorprim=1 / transfer=1 / colormatrix=1 / chromaloc=0 / display-window=0 / cll=0,0 / min-luma=0 / max-luma=1023 / log2-max-poc-lsb=8 / vui-timing-info / vui-hrd-info / slices=1 / no-opt-qp-pps / no-opt-ref-list-length-pps / no-multi-pass-opt-rps / scenecut-bias=0.05 / no-opt-cu-delta-qp / no-aq-motion / no-hdr / no-hdr-opt / no-dhdr10-opt / no-idr-recovery-sei / analysis-reuse-level=5 / scale-factor=0 / refine-intra=0 / refine-inter=0 / refine-mv=1 / refine-ctu-distortion=0 / no-limit-sao / ctu-info=0 / no-lowpass-dct / refine-analysis-type=0 / copy-pic=1 / max-ausize-factor=1.0 / no-dynamic-refine / no-single-sei / no-hevc-aq / no-svt / no-field / qp-adaptation-range=1.00
Default : Yes
Forced : No
Color range : Limited
Color primaries : BT.709
Transfer characteristics : BT.709
Matrix coefficients : BT.709

Audio
ID : 2
Format : AC-3
Format/Info : Audio Coding 3
Commercial name : Dolby Digital
Codec ID : A_AC3
Duration : 1 h 30 min
Bit rate mode : Constant
Bit rate : 640 kb/s
Channel(s) : 6 channels
Channel layout : L R C LFE Ls Rs
Sampling rate : 48.0 kHz
Frame rate : 31.250 FPS (1536 SPF)
Compression mode : Lossy
Delay relative to video : -5 ms
Stream size : 416 MiB (13%)
Title : Dolby Digital Surround 5.1 (AC3)
Language : English
Service kind : Complete Main
Default : Yes
Forced : No

Menu
00:00:00.000 : :Main Titles
00:05:10.560 : :No Smudges, Please
00:10:05.105 : :Just a Valium
00:11:59.010 : :Robert Arrives
00:15:45.403 : :Parking Nightmare
00:18:32.903 : :So Many Guests
00:22:28.430 : :Troy Confesses
00:27:25.227 : :Funeral Service
00:31:47.864 : :It's Moving!
00:34:53.842 : :Go with the Flow
00:39:08.179 : :Quite a Shock
00:45:31.979 : :Howard
00:49:09.447 : :Blackmail
00:52:15.507 : :Poor Bastard
00:56:12.119 : :Good Qualities
00:58:35.804 : :No Joke
01:00:02.557 : :Abthroom Debacle
01:01:42.824 : :Death at a Funderal
01:07:03.311 : :The Jumper
01:10:20.258 : :Moving the Body
01:12:26.676 : :Martha's Surprise
01:16:08.105 : :What's That Sound?
01:20:20.566 : :An Exceptional Man
01:23:29.880 : :Positive Note / End Titles

Trackers


Trackers history

Date
2 weeks ago 2 3 44
2 weeks ago 0 0 0

Files


Related

DLTitleUpCreatedSize💬
SUICIDEBOYS - YUNGDEATHLILLIFE (2015) [320 MP3] [XannyFamily]
1 week ago 1 week ago 53.94 MBs 0 5 1 5
Death at a Funeral (2007) 1080p Bluray 10-bit x265 HEVC AC3 5 1 [XannyFamily]
2 weeks ago 2 weeks ago 3.07 GBs 0 2 3 44
Five Finger Death Punch A Decade Of Destruction Vol I and II CD [2020] FLAC
1 month ago 1 month ago 927.75 MBs 0 1 0 0
Death of Me 2020 1080p WEB-DL DD5 1 H 264-FGT
1 month ago 2 months ago 3.65 GBs 0 7 13 93
Deathstroke Knights and Dragons The Movie 2020 MULTI BDRIP 1080p X264 AAC-MINION
3 months ago 3 months ago 8 GBs 0 1 0 0
HD-ELITE ME_If You Meet Sartana Pray for Your Death 1968 1080p BluRay x264-GHOULS_Dual_Mg
8 months ago 8 months ago 6.69 GBs 0 1 0 0
Slayer - Corona V Bringer Of Death (EP) 2020 akVO
8 months ago 8 months ago 81.33 MBs 0 37 13 120
Five Finger Death Punch F8 FLAC
9 months ago 9 months ago 433.47 MBs 0 1 0 0
Five Finger Death Punch F8 [2020] WEB
9 months ago 9 months ago 130.9 MBs 2 0 9 0
Five Finger Death Punch - 2020 - F8
9 months ago 9 months ago 132.95 MBs 0 1 3 10

Comments

Unidentified:




Magnet4You Torrentz2 PirateIro API Contact Torrent4You