BrowseTrendingLibraryHelp




Title:

Shutter Island (2010) 1080p Bluray 10-bit x265 HEVC EAC3 5 1 [XannyFamily]

Health:

Seeders : 12 Leechers: 9 Peers : 21 Completed : 43

Update:

3 weeks ago

Rating:

0 0 0

Created:

2 weeks ago

Uploaded:

2 weeks ago

Hash:

6f17a8aaf0fca745a6b57e04812f87513dbe4ee0

6f17a8aaf0fca745a6b57e04812f87513dbe4ee0

Size:

3.86 GBs

Download:

Views:

175

Tags:

Shutter Island 2010 1080p Bluray 10 bit x265 HEVC EAC3 5 XannyFamily

Category:

movies

Share:

http://torrent4you.me/torrent/69994

Comment:

XannyFamily <3

Description

General
Unique ID : 208523346629403959486559856895961653347 (0x9CE022BFB565AF9A2B394CF12D10E063)
Complete name : /Volumes/sammy/Shutter Island (2010) 1080p Bluray 10-bit x265 HEVC EAC3 5.1 [XannyFamily].mkv
Format : Matroska
Format version : Version 4
File size : 3.86 GiB
Duration : 2 h 18 min
Overall bit rate : 4 004 kb/s
Movie name : Shutter Island (2010) 1080p Bluray 10-bit x265 HEVC EAC3 5.1 [XannyFamily]
Description : Encoded by the XannyFamily
Released date : 13 February 2010
Encoded date : UTC 2020-11-12 09:28:30
Writing application : mkvmerge v51.0.0 ('I Wish') 64-bit
Writing library : libebml v1.4.0 + libmatroska v1.6.2 / Lavf58.29.100
ARTIST : Leonardo DiCaprio, Emily Mortimer, Mark Ruffalo
DIRECTOR : Martin Scorsese
GENRE : Psychological thriller
SYNOPSIS : In 1954, a U.S. Marshal investigates the disappearance of a murderer who escaped from a hospital for the criminally insane.

Video
ID : 1
Format : HEVC
Format/Info : High Efficiency Video Coding
Format profile : Main [email protected]@Main
Codec ID : V_MPEGH/ISO/HEVC
Duration : 2 h 18 min
Bit rate : 3 691 kb/s
Width : 1 920 pixels
Height : 816 pixels
Display aspect ratio : 2.35:1
Frame rate mode : Constant
Frame rate : 23.976 (24000/1001) FPS
Color space : YUV
Chroma subsampling : 4:2:0
Bit depth : 10 bits
Bits/(Pixel*Frame) : 0.098
Stream size : 3.56 GiB (92%)
Writing library : x265 3.2.1+1-b5c86a64bbbe:[Linux][GCC 9.3.0][64 bit] 10bit
Encoding settings : cpuid=1111039 / frame-threads=3 / wpp / no-pmode / no-pme / no-psnr / no-ssim / log-level=2 / input-csp=1 / input-res=1920x816 / interlace=0 / total-frames=0 / level-idc=0 / high-tier=1 / uhd-bd=0 / ref=3 / no-allow-non-conformance / no-repeat-headers / annexb / no-aud / no-hrd / info / hash=0 / no-temporal-layers / open-gop / min-keyint=24 / keyint=240 / gop-lookahead=0 / bframes=4 / b-adapt=2 / b-pyramid / bframe-bias=0 / rc-lookahead=20 / lookahead-slices=5 / scenecut=40 / radl=0 / no-splice / no-intra-refresh / ctu=64 / min-cu-size=8 / no-rect / no-amp / max-tu-size=32 / tu-inter-depth=1 / tu-intra-depth=1 / limit-tu=0 / rdoq-level=0 / dynamic-rd=0.00 / no-ssim-rd / signhide / no-tskip / nr-intra=0 / nr-inter=0 / no-constrained-intra / strong-intra-smoothing / max-merge=3 / limit-refs=1 / no-limit-modes / me=1 / subme=2 / merange=57 / temporal-mvp / no-hme / weightp / no-weightb / no-analyze-src-pics / deblock=0:0 / sao / no-sao-non-deblock / rd=3 / selective-sao=4 / early-skip / rskip / no-fast-intra / no-tskip-fast / no-cu-lossless / b-intra / no-splitrd-skip / rdpenalty=0 / psy-rd=2.00 / psy-rdoq=0.00 / no-rd-refine / no-lossless / cbqpoffs=0 / crqpoffs=0 / rc=crf / crf=20.0 / qcomp=0.60 / qpstep=4 / stats-write=0 / stats-read=0 / ipratio=1.40 / pbratio=1.30 / aq-mode=2 / aq-strength=1.00 / cutree / zone-count=0 / no-strict-cbr / qg-size=32 / no-rc-grain / qpmax=69 / qpmin=0 / no-const-vbv / sar=1 / overscan=0 / videoformat=5 / range=0 / colorprim=1 / transfer=1 / colormatrix=1 / chromaloc=0 / display-window=0 / cll=0,0 / min-luma=0 / max-luma=1023 / log2-max-poc-lsb=8 / vui-timing-info / vui-hrd-info / slices=1 / no-opt-qp-pps / no-opt-ref-list-length-pps / no-multi-pass-opt-rps / scenecut-bias=0.05 / no-opt-cu-delta-qp / no-aq-motion / no-hdr / no-hdr-opt / no-dhdr10-opt / no-idr-recovery-sei / analysis-reuse-level=5 / scale-factor=0 / refine-intra=0 / refine-inter=0 / refine-mv=1 / refine-ctu-distortion=0 / no-limit-sao / ctu-info=0 / no-lowpass-dct / refine-analysis-type=0 / copy-pic=1 / max-ausize-factor=1.0 / no-dynamic-refine / no-single-sei / no-hevc-aq / no-svt / no-field / qp-adaptation-range=1.00
Default : Yes
Forced : No
Color range : Limited
Color primaries : BT.709
Transfer characteristics : BT.709
Matrix coefficients : BT.709

Audio
ID : 2
Format : E-AC-3
Format/Info : Enhanced AC-3
Commercial name : Dolby Digital Plus
Codec ID : A_EAC3
Duration : 2 h 18 min
Bit rate mode : Constant
Bit rate : 224 kb/s
Channel(s) : 6 channels
Channel layout : L R C LFE Ls Rs
Sampling rate : 48.0 kHz
Frame rate : 31.250 FPS (1536 SPF)
Compression mode : Lossy
Delay relative to video : -5 ms
Stream size : 221 MiB (6%)
Title : Dolby Digital Plus Surround 5.1 (EAC3)
Language : English
Service kind : Complete Main
Default : Yes
Forced : No

Text #1
ID : 3
Format : PGS
Muxing mode : zlib
Codec ID : S_HDMV/PGS
Codec ID/Info : Picture based subtitle format used on BDs/HD-DVDs
Duration : 2 h 8 min
Bit rate : 35.6 kb/s
Count of elements : 3114
Stream size : 32.7 MiB (1%)
Title : Full English Subtitles
Language : English
Default : No
Forced : No

Text #2
ID : 4
Format : PGS
Muxing mode : zlib
Codec ID : S_HDMV/PGS
Codec ID/Info : Picture based subtitle format used on BDs/HD-DVDs
Duration : 2 h 9 min
Bit rate : 29.4 kb/s
Count of elements : 2896
Stream size : 27.2 MiB (1%)
Title : Full Spanish Subtitles
Language : Spanish
Default : No
Forced : No

Text #3
ID : 5
Format : PGS
Muxing mode : zlib
Codec ID : S_HDMV/PGS
Codec ID/Info : Picture based subtitle format used on BDs/HD-DVDs
Duration : 2 h 17 min
Bit rate : 26.2 kb/s
Count of elements : 3110
Stream size : 25.7 MiB (1%)
Title : Full French Subtitles
Language : French
Default : No
Forced : No

Text #4
ID : 6
Format : PGS
Muxing mode : zlib
Codec ID : S_HDMV/PGS
Codec ID/Info : Picture based subtitle format used on BDs/HD-DVDs
Duration : 2 h 17 min
Bit rate : 32.4 kb/s
Count of elements : 3130
Stream size : 31.8 MiB (1%)
Title : Full Turkish Subtitles
Language : Turkish
Default : No
Forced : No

Text #5
ID : 7
Format : PGS
Muxing mode : zlib
Codec ID : S_HDMV/PGS
Codec ID/Info : Picture based subtitle format used on BDs/HD-DVDs
Duration : 2 h 17 min
Bit rate : 31.2 kb/s
Count of elements : 3130
Stream size : 30.7 MiB (1%)
Title : Full Hungarian Subtitles
Language : Hungarian
Default : No
Forced : No

Text #6
ID : 8
Format : PGS
Muxing mode : zlib
Codec ID : S_HDMV/PGS
Codec ID/Info : Picture based subtitle format used on BDs/HD-DVDs
Duration : 2 h 16 min
Bit rate : 28.3 kb/s
Count of elements : 2436
Stream size : 27.7 MiB (1%)
Title : Full Danish Subtitles
Language : Danish
Default : No
Forced : No

Text #7
ID : 9
Format : PGS
Muxing mode : zlib
Codec ID : S_HDMV/PGS
Codec ID/Info : Picture based subtitle format used on BDs/HD-DVDs
Duration : 2 h 17 min
Bit rate : 23.1 kb/s
Count of elements : 2600
Stream size : 22.7 MiB (1%)
Title : Full Dutch Subtitles
Language : Dutch
Default : No
Forced : No

Text #8
ID : 10
Format : PGS
Muxing mode : zlib
Codec ID : S_HDMV/PGS
Codec ID/Info : Picture based subtitle format used on BDs/HD-DVDs
Duration : 2 h 17 min
Bit rate : 30.2 kb/s
Count of elements : 3132
Stream size : 29.7 MiB (1%)
Title : Full Polish Subtitles
Language : Polish
Default : No
Forced : No

Text #9
ID : 11
Format : PGS
Muxing mode : zlib
Codec ID : S_HDMV/PGS
Codec ID/Info : Picture based subtitle format used on BDs/HD-DVDs
Duration : 2 h 17 min
Bit rate : 33.0 kb/s
Count of elements : 3130
Stream size : 32.4 MiB (1%)
Title : Full Icelandic Subtitles
Language : Icelandic
Default : No
Forced : No

Text #10
ID : 12
Format : PGS
Muxing mode : zlib
Codec ID : S_HDMV/PGS
Codec ID/Info : Picture based subtitle format used on BDs/HD-DVDs
Duration : 2 h 17 min
Bit rate : 25.6 kb/s
Count of elements : 2966
Stream size : 25.2 MiB (1%)
Title : Full Czech Subtitles
Language : Czech
Default : No
Forced : No

Menu
00:00:00.000 : :Chapter 1
00:06:33.184 : :Chapter 2
00:13:07.787 : :Chapter 3
00:20:21.220 : :Chapter 4
00:26:35.636 : :Chapter 5
00:34:55.051 : :Chapter 6
00:41:23.606 : :Chapter 7
00:48:29.824 : :Chapter 8
00:55:17.898 : :Chapter 9
01:04:02.756 : :Chapter 10
01:10:05.576 : :Chapter 11
01:16:54.568 : :Chapter 12
01:23:05.731 : :Chapter 13
01:31:38.118 : :Chapter 14
01:37:29.761 : :Chapter 15
01:45:39.083 : :Chapter 16
01:52:30.118 : :Chapter 17
01:57:40.303 : :Chapter 18
02:03:51.007 : :Chapter 19
02:10:31.324 : :Chapter 20

Trackers


Trackers history

Date
2 weeks ago 12 9 43
2 weeks ago 0 0 0

Files


Related

DLTitleUpCreatedSize💬
Shutter Island (2010) 1080p Bluray 10-bit x265 HEVC EAC3 5 1 [XannyFamily]
2 weeks ago 2 weeks ago 3.86 GBs 0 12 9 43
Shutter Island (2010) 1080p Bluray 10-bit x265 HEVC DTS-HD EAC3 5 1 [XannyFamily]
1 month ago 1 month ago 8.62 GBs 1 27 38 32
Shutter Island 2010 1080p Bluray x264 anoXmous
5 months ago 50 years ago 1.41 GBs 0 0 0 0
Shutter Island (2010) [1080p]
3 years ago 8 years ago 1.9 GBs 0 0 0 0
Shutter Island 720p 2010
3 years ago 9 years ago 599.84 MBs 0 0 0 0

Comments

Unidentified:




Magnet4You Torrentz2 PirateIro API Contact Torrent4You