BrowseTrendingLibraryHelp




Title:

Silver Linings Playbook (2012) 1080p Bluray 10-bit x265 HEVC AC3 5 1 [XannyFamily]

Health:

Seeders : 7 Leechers: 7 Peers : 14 Completed : 8

Update:

3 weeks ago

Rating:

0 0 0

Created:

2 weeks ago

Uploaded:

2 weeks ago

Hash:

f2639046cdda3133930381f4823d1ff5c3eefc36

f2639046cdda3133930381f4823d1ff5c3eefc36

Size:

3.33 GBs

Download:

Views:

75

Tags:

Silver Linings Playbook 2012 1080p Bluray 10 bit x265 HEVC AC3 XannyFamily

Category:

movies

Share:

http://torrent4you.me/torrent/70001

Comment:

XannyFamily <3

Description

General
Unique ID : 153834428994988994285800193742354275922 (0x73BB6EEE940C3CE10AA638A104185E52)
Complete name : /Volumes/sammy/Silver Linings Playbook (2012) 1080p Bluray 10-bit x265 HEVC AC3 5.1 [XannyFamily].mkv
Format : Matroska
Format version : Version 4
File size : 3.33 GiB
Duration : 2 h 2 min
Overall bit rate : 3 903 kb/s
Movie name : Silver Linings Playbook (2012) 1080p Bluray 10-bit x265 AC3 5.1 [XannyFamilly]
Description : The XannyFamily likes to chill to films about mental illness what a surprise
Released date : 8 September 2012
Encoded date : UTC 2020-11-12 18:27:15
Writing application : HandBrake 1.3.3 2020061500
Writing library : Lavf58.29.100
ErrorDetectionType : Per level 1
ARTIST : Bradley Cooper, Jennifer Lawrence, Robert De Niro
DIRECTOR : David O. Russell
GENRE : Romcom
SYNOPSIS : After a stint in a mental institution, former teacher Pat Solitano moves back in with his parents and tries to reconcile with his ex-wife. Things get more challenging when Pat meets Tiffany, a mysterious girl with problems of her own.

Video
ID : 1
Format : HEVC
Format/Info : High Efficiency Video Coding
Format profile : Main [email protected]@Main
Codec ID : V_MPEGH/ISO/HEVC
Duration : 2 h 2 min
Bit rate : 3 185 kb/s
Width : 1 920 pixels
Height : 800 pixels
Display aspect ratio : 2.40:1
Frame rate mode : Constant
Frame rate : 23.976 (24000/1001) FPS
Color space : YUV
Chroma subsampling : 4:2:0
Bit depth : 10 bits
Bits/(Pixel*Frame) : 0.086
Stream size : 2.72 GiB (82%)
Writing library : x265 3.2.1+1-b5c86a64bbbe:[Linux][GCC 9.3.0][64 bit] 10bit
Encoding settings : cpuid=1111039 / frame-threads=3 / wpp / no-pmode / no-pme / no-psnr / no-ssim / log-level=2 / input-csp=1 / input-res=1920x800 / interlace=0 / total-frames=0 / level-idc=0 / high-tier=1 / uhd-bd=0 / ref=3 / no-allow-non-conformance / no-repeat-headers / annexb / no-aud / no-hrd / info / hash=0 / no-temporal-layers / open-gop / min-keyint=24 / keyint=240 / gop-lookahead=0 / bframes=4 / b-adapt=2 / b-pyramid / bframe-bias=0 / rc-lookahead=20 / lookahead-slices=5 / scenecut=40 / radl=0 / no-splice / no-intra-refresh / ctu=64 / min-cu-size=8 / no-rect / no-amp / max-tu-size=32 / tu-inter-depth=1 / tu-intra-depth=1 / limit-tu=0 / rdoq-level=0 / dynamic-rd=0.00 / no-ssim-rd / signhide / no-tskip / nr-intra=0 / nr-inter=0 / no-constrained-intra / strong-intra-smoothing / max-merge=3 / limit-refs=1 / no-limit-modes / me=1 / subme=2 / merange=57 / temporal-mvp / no-hme / weightp / no-weightb / no-analyze-src-pics / deblock=0:0 / sao / no-sao-non-deblock / rd=3 / selective-sao=4 / early-skip / rskip / no-fast-intra / no-tskip-fast / no-cu-lossless / b-intra / no-splitrd-skip / rdpenalty=0 / psy-rd=2.00 / psy-rdoq=0.00 / no-rd-refine / no-lossless / cbqpoffs=0 / crqpoffs=0 / rc=crf / crf=20.0 / qcomp=0.60 / qpstep=4 / stats-write=0 / stats-read=0 / ipratio=1.40 / pbratio=1.30 / aq-mode=2 / aq-strength=1.00 / cutree / zone-count=0 / no-strict-cbr / qg-size=32 / no-rc-grain / qpmax=69 / qpmin=0 / no-const-vbv / sar=1 / overscan=0 / videoformat=5 / range=0 / colorprim=1 / transfer=1 / colormatrix=1 / chromaloc=0 / display-window=0 / cll=0,0 / min-luma=0 / max-luma=1023 / log2-max-poc-lsb=8 / vui-timing-info / vui-hrd-info / slices=1 / no-opt-qp-pps / no-opt-ref-list-length-pps / no-multi-pass-opt-rps / scenecut-bias=0.05 / no-opt-cu-delta-qp / no-aq-motion / no-hdr / no-hdr-opt / no-dhdr10-opt / no-idr-recovery-sei / analysis-reuse-level=5 / scale-factor=0 / refine-intra=0 / refine-inter=0 / refine-mv=1 / refine-ctu-distortion=0 / no-limit-sao / ctu-info=0 / no-lowpass-dct / refine-analysis-type=0 / copy-pic=1 / max-ausize-factor=1.0 / no-dynamic-refine / no-single-sei / no-hevc-aq / no-svt / no-field / qp-adaptation-range=1.00
Default : Yes
Forced : No
Color range : Limited
Color primaries : BT.709
Transfer characteristics : BT.709
Matrix coefficients : BT.709

Audio
ID : 2
Format : AC-3
Format/Info : Audio Coding 3
Commercial name : Dolby Digital
Codec ID : A_AC3
Duration : 2 h 2 min
Bit rate mode : Constant
Bit rate : 640 kb/s
Channel(s) : 6 channels
Channel layout : L R C LFE Ls Rs
Sampling rate : 48.0 kHz
Frame rate : 31.250 FPS (1536 SPF)
Compression mode : Lossy
Delay relative to video : -5 ms
Stream size : 559 MiB (16%)
Title : Dolby Digital Surround 5.1 (AC3)
Language : English
Service kind : Complete Main
Default : Yes
Forced : No

Text
ID : 3
Format : ASS
Codec ID : S_TEXT/ASS
Codec ID/Info : Advanced Sub Station Alpha
Duration : 1 h 55 min
Compression mode : Lossless
Title : English
Language : English
Default : No
Forced : No

Menu
00:00:00.000 : :00:00:00.000
00:10:18.576 : :00:10:18.535
00:21:12.021 : :00:21:11.979
00:29:26.014 : :00:29:25.847
00:35:20.869 : :00:35:20.869
00:52:22.014 : :00:52:22.014
01:03:47.449 : :01:03:47.282
01:13:18.728 : :01:13:18.728
01:21:50.489 : :01:21:50.405
01:36:58.187 : :01:36:58.104
01:43:52.435 : :01:43:52.435
01:56:08.795 : :01:56:08.795

Trackers


Trackers history

Date
2 weeks ago 7 7 8
2 weeks ago 0 0 0

Files


Related

DLTitleUpCreatedSize💬
Silver Linings Playbook (2012) 1080p Bluray 10-bit x265 HEVC AC3 5 1 [XannyFamily]
2 weeks ago 2 weeks ago 3.33 GBs 0 7 7 8
[ Cpasbien me] Silver Linings Playbook 2012 FRENCH BRRIP XviD-FUZION
3 years ago 7 years ago 1.37 GBs 0 57 1 6K
Silver Linings Playbook (2012) [1080p]
3 years ago 7 years ago 1.8 GBs 0 0 0 0

Comments

Unidentified:




Magnet4You Torrentz2 PirateIro API Contact Torrent4You