BrowseTrendingLibraryHelp




Title:

Catch Me If You Can (2002) 1080p Bluray 10-bit x265 HEVC AC3 5 1 [XannyFamily]

Health:

Seeders : 13 Leechers: 4 Peers : 17 Completed : 40

Update:

3 weeks ago

Rating:

0 0 0

Created:

2 weeks ago

Uploaded:

2 weeks ago

Hash:

212c597876b5e12047324eca4172f551679649bc

212c597876b5e12047324eca4172f551679649bc

Size:

4.41 GBs

Download:

Views:

90

Tags:

Catch Me If You Can 2002 1080p Bluray 10 bit x265 HEVC AC3 XannyFamily

Category:

movies

Share:

http://torrent4you.me/torrent/70005

Comment:

XannyFamily <3

Description

General
Unique ID : 325564262163043695992912809495311553710 (0xF4ED6568EBB8F9A40C1CC1859E8614AE)
Complete name : /Volumes/sammy/Catch Me If You Can (2002) 1080p Bluray 10-bit x265 HEVC AC3 5.1 [XannyFamily].mkv
Format : Matroska
Format version : Version 4
File size : 4.41 GiB
Duration : 2 h 20 min
Overall bit rate : 4 483 kb/s
Movie name : Catch Me If You Can (2002) 1080p Bluray 10-bit x265 HEVC AC3 5.1 [XannyFamily]
Released date : 18 December 2002
Encoded date : UTC 2020-11-13 16:13:52
Writing application : HandBrake 1.3.3 2020061500
Writing library : Lavf58.29.100
ErrorDetectionType : Per level 1
ARTIST : Leonardo DiCaprio, Tom Hanks, Christopher Walken
DIRECTOR : Steven Spielberg
GENRE : Biographical crime
SYNOPSIS : Barely 21 yet, Frank is a skilled forger who has passed as a doctor, lawyer and pilot. FBI agent Carl, becomes obsessed with tracking down the con man. But Frank not only eludes capture, he revels in the pursuit.

Video
ID : 1
Format : HEVC
Format/Info : High Efficiency Video Coding
Format profile : Main [email protected]@Main
Codec ID : V_MPEGH/ISO/HEVC
Duration : 2 h 20 min
Bit rate : 3 754 kb/s
Width : 1 920 pixels
Height : 1 036 pixels
Display aspect ratio : 1.85:1
Frame rate mode : Constant
Frame rate : 23.976 (24000/1001) FPS
Color space : YUV
Chroma subsampling : 4:2:0
Bit depth : 10 bits
Bits/(Pixel*Frame) : 0.079
Stream size : 3.69 GiB (84%)
Writing library : x265 3.2.1+1-b5c86a64bbbe:[Linux][GCC 9.3.0][64 bit] 10bit
Encoding settings : cpuid=1111039 / frame-threads=3 / wpp / no-pmode / no-pme / no-psnr / no-ssim / log-level=2 / input-csp=1 / input-res=1920x1036 / interlace=0 / total-frames=0 / level-idc=0 / high-tier=1 / uhd-bd=0 / ref=3 / no-allow-non-conformance / no-repeat-headers / annexb / no-aud / no-hrd / info / hash=0 / no-temporal-layers / open-gop / min-keyint=24 / keyint=240 / gop-lookahead=0 / bframes=4 / b-adapt=2 / b-pyramid / bframe-bias=0 / rc-lookahead=20 / lookahead-slices=6 / scenecut=40 / radl=0 / no-splice / no-intra-refresh / ctu=64 / min-cu-size=8 / no-rect / no-amp / max-tu-size=32 / tu-inter-depth=1 / tu-intra-depth=1 / limit-tu=0 / rdoq-level=0 / dynamic-rd=0.00 / no-ssim-rd / signhide / no-tskip / nr-intra=0 / nr-inter=0 / no-constrained-intra / strong-intra-smoothing / max-merge=3 / limit-refs=1 / no-limit-modes / me=1 / subme=2 / merange=57 / temporal-mvp / no-hme / weightp / no-weightb / no-analyze-src-pics / deblock=0:0 / sao / no-sao-non-deblock / rd=3 / selective-sao=4 / early-skip / rskip / no-fast-intra / no-tskip-fast / no-cu-lossless / b-intra / no-splitrd-skip / rdpenalty=0 / psy-rd=2.00 / psy-rdoq=0.00 / no-rd-refine / no-lossless / cbqpoffs=0 / crqpoffs=0 / rc=crf / crf=20.0 / qcomp=0.60 / qpstep=4 / stats-write=0 / stats-read=0 / ipratio=1.40 / pbratio=1.30 / aq-mode=2 / aq-strength=1.00 / cutree / zone-count=0 / no-strict-cbr / qg-size=32 / no-rc-grain / qpmax=69 / qpmin=0 / no-const-vbv / sar=1 / overscan=0 / videoformat=5 / range=0 / colorprim=1 / transfer=1 / colormatrix=1 / chromaloc=0 / display-window=0 / cll=0,0 / min-luma=0 / max-luma=1023 / log2-max-poc-lsb=8 / vui-timing-info / vui-hrd-info / slices=1 / no-opt-qp-pps / no-opt-ref-list-length-pps / no-multi-pass-opt-rps / scenecut-bias=0.05 / no-opt-cu-delta-qp / no-aq-motion / no-hdr / no-hdr-opt / no-dhdr10-opt / no-idr-recovery-sei / analysis-reuse-level=5 / scale-factor=0 / refine-intra=0 / refine-inter=0 / refine-mv=1 / refine-ctu-distortion=0 / no-limit-sao / ctu-info=0 / no-lowpass-dct / refine-analysis-type=0 / copy-pic=1 / max-ausize-factor=1.0 / no-dynamic-refine / no-single-sei / no-hevc-aq / no-svt / no-field / qp-adaptation-range=1.00
Default : Yes
Forced : No
Color range : Limited
Color primaries : BT.709
Transfer characteristics : BT.709
Matrix coefficients : BT.709

Audio
ID : 2
Format : AC-3
Format/Info : Audio Coding 3
Commercial name : Dolby Digital
Codec ID : A_AC3
Duration : 2 h 20 min
Bit rate mode : Constant
Bit rate : 640 kb/s
Channel(s) : 6 channels
Channel layout : L R C LFE Ls Rs
Sampling rate : 48.0 kHz
Frame rate : 31.250 FPS (1536 SPF)
Compression mode : Lossy
Delay relative to video : -5 ms
Stream size : 644 MiB (14%)
Title : Dolby Digital Surround 5.1 (AC3)
Language : English
Service kind : Complete Main
Default : Yes
Forced : No

Text
ID : 3
Format : ASS
Codec ID : S_TEXT/ASS
Codec ID/Info : Advanced Sub Station Alpha
Duration : 2 h 15 min
Compression mode : Lossless
Language : English
Default : No
Forced : No

Menu
00:00:00.000 : :00:00:00.000
00:04:43.909 : :00:04:43.909
00:10:59.450 : :00:10:59.450
00:18:35.281 : :00:18:35.281
00:25:56.430 : :00:25:56.430
00:28:58.737 : :00:28:58.737
00:33:59.663 : :00:33:59.663
00:38:37.065 : :00:38:37.065
00:42:09.944 : :00:42:09.944
00:49:06.068 : :00:49:06.068
00:56:54.870 : :00:56:54.870
01:03:42.527 : :01:03:42.527
01:10:05.952 : :01:10:05.952
01:22:26.733 : :01:22:26.733
01:32:10.400 : :01:32:10.400
01:38:26.067 : :01:38:26.067
01:43:32.581 : :01:43:32.581
01:49:50.542 : :01:49:50.417
01:58:00.907 : :01:58:00.907
02:04:01.476 : :02:04:01.476
02:12:33.279 : :02:12:33.279
02:16:00.277 : :02:16:00.194

Trackers


Trackers history

Date
2 weeks ago 13 4 40
2 weeks ago 0 0 0

Files


Related

DLTitleUpCreatedSize💬
Catch Me If You Can (2002) 1080p Bluray 10-bit x265 HEVC AC3 5 1 [XannyFamily]
2 weeks ago 2 weeks ago 4.41 GBs 0 13 4 40
Design for Water - Rainwater Harvesting, Stormwater Catchment, and Alternate Water Reuse
2 years ago 2 years ago 33.98 MBs 0 1 1 0
TamilRockers nu - Catch Me If You Can (2002)[720p - BDRip - [Tamil + Hindi + Eng] mkv
3 years ago 3 years ago 1.2 GBs 0 1 4 2
The Hunger Games Catching Fire (2013) [1080p]
3 years ago 6 years ago 2.05 GBs 0 338 92 10K
The Hunger Games Catching Fire (2013)
3 years ago 6 years ago 983.46 MBs 0 81 22 157K
Catch Me If You Can (2002) [1080p]
3 years ago 6 years ago 2.05 GBs 0 18 10 9K
Catch Me If You Can (2002)
3 years ago 6 years ago 982.45 MBs 0 36 7 15K
[ Cpasbien me] The Hunger Games Catching Fire 2013 FRENCH BDRip XviD-FrIeNdS avi
3 years ago 6 years ago 1.37 GBs 0 102 2 48K
[ Cpasbien me] The Hunger Games Catching Fire 2013 MULTi 1080p BluRay x264-LOST mkv
3 years ago 6 years ago 10.93 GBs 0 7 3 18K
The Hunger Games Catching Fire 2013 FRENCH 720p BluRay x264-PRiDEHD
3 years ago 6 years ago 5.46 GBs 0 4 1 38

Comments

Unidentified:




Magnet4You Torrentz2 PirateIro API Contact Torrent4You