BrowseTrendingLibraryHelp




Title:

Joker (2019) 1080p Bluray 10-bit x265 HEVC AC3 5 1 [XannyFamily]

Health:

Seeders : 13 Leechers: 3 Peers : 16 Completed : 54

Update:

3 weeks ago

Rating:

0 0 0

Created:

2 weeks ago

Uploaded:

2 weeks ago

Hash:

b9a981e2401806dabb8d75691942cf5cda47edb7

b9a981e2401806dabb8d75691942cf5cda47edb7

Size:

4.18 GBs

Download:

Views:

177

Tags:

Joker 2019 1080p Bluray 10 bit x265 HEVC AC3 1 XannyFamily

Category:

movies

Share:

http://torrent4you.me/torrent/70015

Comment:

XannyFamily <3

Description

General
Unique ID : 133463617610320173407503257919607452355 (0x646828633BFFB1539DA942E43AB6B2C3)
Complete name : /Volumes/sammy/Joker (2019) 1080p Bluray 10-bit x265 HEVC AC3 5.1 [XannyFamily].mkv
Format : Matroska
Format version : Version 4
File size : 4.18 GiB
Duration : 2 h 1 min
Overall bit rate : 4 912 kb/s
Movie name : Joker (2019) 1080p Bluray 10-bit x265 HEVC AC3 5.1 [XannyFamily]
Description : The XannyFamily invites you to join us on a descent into madness
Released date : 4 October 2019
Encoded date : UTC 2020-11-12 08:24:32
Writing application : mkvmerge v51.0.0 ('I Wish') 64-bit
Writing library : libebml v1.4.0 + libmatroska v1.6.2 / Lavf58.29.100
ARTIST : Joaquin Phoenix, Robert De Niro, Zazie Beetz, Frances Conroy
DIRECTOR : Todd Phillips
GENRE : Psychological thriller
SUMMARY : Best film of 2019 easy...
SYNOPSIS : In Gotham City, mentally troubled comedian Arthur Fleck is disregarded and mistreated by society. He then embarks on a downward spiral of revolution and bloody crime. This path brings him face-to-face with his alter-ego: the Joker.

Video
ID : 1
Format : HEVC
Format/Info : High Efficiency Video Coding
Format profile : Main [email protected]@Main
Codec ID : V_MPEGH/ISO/HEVC
Duration : 2 h 1 min
Bit rate : 4 111 kb/s
Width : 1 920 pixels
Height : 1 036 pixels
Display aspect ratio : 1.85:1
Frame rate mode : Constant
Frame rate : 23.976 (24000/1001) FPS
Color space : YUV
Chroma subsampling : 4:2:0
Bit depth : 10 bits
Bits/(Pixel*Frame) : 0.086
Stream size : 3.50 GiB (84%)
Writing library : x265 3.2.1+1-b5c86a64bbbe:[Linux][GCC 9.3.0][64 bit] 10bit
Encoding settings : cpuid=1111039 / frame-threads=3 / wpp / no-pmode / no-pme / no-psnr / no-ssim / log-level=2 / input-csp=1 / input-res=1920x1036 / interlace=0 / total-frames=0 / level-idc=0 / high-tier=1 / uhd-bd=0 / ref=3 / no-allow-non-conformance / no-repeat-headers / annexb / no-aud / no-hrd / info / hash=0 / no-temporal-layers / open-gop / min-keyint=24 / keyint=240 / gop-lookahead=0 / bframes=4 / b-adapt=2 / b-pyramid / bframe-bias=0 / rc-lookahead=20 / lookahead-slices=6 / scenecut=40 / radl=0 / no-splice / no-intra-refresh / ctu=64 / min-cu-size=8 / no-rect / no-amp / max-tu-size=32 / tu-inter-depth=1 / tu-intra-depth=1 / limit-tu=0 / rdoq-level=0 / dynamic-rd=0.00 / no-ssim-rd / signhide / no-tskip / nr-intra=0 / nr-inter=0 / no-constrained-intra / strong-intra-smoothing / max-merge=3 / limit-refs=1 / no-limit-modes / me=1 / subme=2 / merange=57 / temporal-mvp / no-hme / weightp / no-weightb / no-analyze-src-pics / deblock=0:0 / sao / no-sao-non-deblock / rd=3 / selective-sao=4 / early-skip / rskip / no-fast-intra / no-tskip-fast / no-cu-lossless / b-intra / no-splitrd-skip / rdpenalty=0 / psy-rd=2.00 / psy-rdoq=0.00 / no-rd-refine / no-lossless / cbqpoffs=0 / crqpoffs=0 / rc=crf / crf=18.0 / qcomp=0.60 / qpstep=4 / stats-write=0 / stats-read=0 / ipratio=1.40 / pbratio=1.30 / aq-mode=2 / aq-strength=1.00 / cutree / zone-count=0 / no-strict-cbr / qg-size=32 / no-rc-grain / qpmax=69 / qpmin=0 / no-const-vbv / sar=1 / overscan=0 / videoformat=5 / range=0 / colorprim=1 / transfer=1 / colormatrix=1 / chromaloc=0 / display-window=0 / cll=0,0 / min-luma=0 / max-luma=1023 / log2-max-poc-lsb=8 / vui-timing-info / vui-hrd-info / slices=1 / no-opt-qp-pps / no-opt-ref-list-length-pps / no-multi-pass-opt-rps / scenecut-bias=0.05 / no-opt-cu-delta-qp / no-aq-motion / no-hdr / no-hdr-opt / no-dhdr10-opt / no-idr-recovery-sei / analysis-reuse-level=5 / scale-factor=0 / refine-intra=0 / refine-inter=0 / refine-mv=1 / refine-ctu-distortion=0 / no-limit-sao / ctu-info=0 / no-lowpass-dct / refine-analysis-type=0 / copy-pic=1 / max-ausize-factor=1.0 / no-dynamic-refine / no-single-sei / no-hevc-aq / no-svt / no-field / qp-adaptation-range=1.00
Default : Yes
Forced : No
Color range : Limited
Color primaries : BT.709
Transfer characteristics : BT.709
Matrix coefficients : BT.709

Audio
ID : 2
Format : AC-3
Format/Info : Audio Coding 3
Commercial name : Dolby Digital
Codec ID : A_AC3
Duration : 2 h 1 min
Bit rate mode : Constant
Bit rate : 640 kb/s
Channel(s) : 6 channels
Channel layout : L R C LFE Ls Rs
Sampling rate : 48.0 kHz
Frame rate : 31.250 FPS (1536 SPF)
Compression mode : Lossy
Stream size : 558 MiB (13%)
Title : Dolby Digital Surround 5.1 (AC3)
Language : English
Service kind : Complete Main
Default : Yes
Forced : No

Text #1
ID : 3
Format : PGS
Muxing mode : zlib
Codec ID : S_HDMV/PGS
Codec ID/Info : Picture based subtitle format used on BDs/HD-DVDs
Duration : 1 h 58 min
Bit rate : 35.8 kb/s
Count of elements : 3480
Stream size : 30.2 MiB (1%)
Language : English
Default : No
Forced : No

Text #2
ID : 4
Format : PGS
Muxing mode : zlib
Codec ID : S_HDMV/PGS
Codec ID/Info : Picture based subtitle format used on BDs/HD-DVDs
Duration : 2 h 1 min
Bit rate : 24.4 kb/s
Count of elements : 2358
Stream size : 21.1 MiB (0%)
Language : Spanish
Default : No
Forced : No

Text #3
ID : 5
Format : PGS
Muxing mode : zlib
Codec ID : S_HDMV/PGS
Codec ID/Info : Picture based subtitle format used on BDs/HD-DVDs
Duration : 2 h 1 min
Bit rate : 23.6 kb/s
Count of elements : 2238
Stream size : 20.5 MiB (0%)
Language : Chinese
Default : No
Forced : No

Text #4
ID : 6
Format : PGS
Muxing mode : zlib
Codec ID : S_HDMV/PGS
Codec ID/Info : Picture based subtitle format used on BDs/HD-DVDs
Duration : 1 h 57 min
Bit rate : 14.9 kb/s
Count of elements : 2336
Stream size : 12.5 MiB (0%)
Language : Korean
Default : No
Forced : No

Text #5
ID : 7
Format : PGS
Muxing mode : zlib
Codec ID : S_HDMV/PGS
Codec ID/Info : Picture based subtitle format used on BDs/HD-DVDs
Duration : 2 h 1 min
Bit rate : 13.8 kb/s
Count of elements : 2502
Stream size : 12.0 MiB (0%)
Language : Arabic
Default : No
Forced : No

Text #6
ID : 8
Format : PGS
Muxing mode : zlib
Codec ID : S_HDMV/PGS
Codec ID/Info : Picture based subtitle format used on BDs/HD-DVDs
Duration : 2 h 1 min
Bit rate : 23.1 kb/s
Count of elements : 2438
Stream size : 20.1 MiB (0%)
Language : Bulgarian
Default : No
Forced : No

Text #7
ID : 9
Format : PGS
Muxing mode : zlib
Codec ID : S_HDMV/PGS
Codec ID/Info : Picture based subtitle format used on BDs/HD-DVDs
Duration : 2 h 1 min
Bit rate : 24.5 kb/s
Count of elements : 2380
Stream size : 21.3 MiB (0%)
Language : Croatian
Default : No
Forced : No

Text #8
ID : 10
Format : PGS
Muxing mode : zlib
Codec ID : S_HDMV/PGS
Codec ID/Info : Picture based subtitle format used on BDs/HD-DVDs
Duration : 2 h 1 min
Bit rate : 23.7 kb/s
Count of elements : 2434
Stream size : 20.6 MiB (0%)
Language : Czech
Default : No
Forced : No

Text #9
ID : 11
Format : PGS
Muxing mode : zlib
Codec ID : S_HDMV/PGS
Codec ID/Info : Picture based subtitle format used on BDs/HD-DVDs
Duration : 2 h 1 min
Bit rate : 26.9 kb/s
Count of elements : 2500
Stream size : 23.3 MiB (1%)
Language : Estonian
Default : No
Forced : No

Text #10
ID : 12
Format : PGS
Muxing mode : zlib
Codec ID : S_HDMV/PGS
Codec ID/Info : Picture based subtitle format used on BDs/HD-DVDs
Duration : 2 h 1 min
Bit rate : 25.2 kb/s
Count of elements : 2412
Stream size : 21.9 MiB (1%)
Language : Greek
Default : No
Forced : No

Text #11
ID : 13
Format : PGS
Muxing mode : zlib
Codec ID : S_HDMV/PGS
Codec ID/Info : Picture based subtitle format used on BDs/HD-DVDs
Duration : 2 h 1 min
Bit rate : 23.0 kb/s
Count of elements : 1892
Stream size : 20.0 MiB (0%)
Language : Hungarian
Default : No
Forced : No

Text #12
ID : 14
Format : PGS
Muxing mode : zlib
Codec ID : S_HDMV/PGS
Codec ID/Info : Picture based subtitle format used on BDs/HD-DVDs
Duration : 2 h 1 min
Bit rate : 24.4 kb/s
Count of elements : 2500
Stream size : 21.2 MiB (0%)
Language : Latvian
Default : No
Forced : No

Text #13
ID : 15
Format : PGS
Muxing mode : zlib
Codec ID : S_HDMV/PGS
Codec ID/Info : Picture based subtitle format used on BDs/HD-DVDs
Duration : 2 h 1 min
Bit rate : 24.3 kb/s
Count of elements : 2434
Stream size : 21.1 MiB (0%)
Language : Lithuanian
Default : No
Forced : No

Text #14
ID : 16
Format : PGS
Muxing mode : zlib
Codec ID : S_HDMV/PGS
Codec ID/Info : Picture based subtitle format used on BDs/HD-DVDs
Duration : 2 h 1 min
Bit rate : 21.5 kb/s
Count of elements : 2330
Stream size : 18.7 MiB (0%)
Language : Polish
Default : No
Forced : No

Text #15
ID : 17
Format : PGS
Muxing mode : zlib
Codec ID : S_HDMV/PGS
Codec ID/Info : Picture based subtitle format used on BDs/HD-DVDs
Duration : 2 h 1 min
Bit rate : 25.0 kb/s
Count of elements : 2414
Stream size : 21.7 MiB (1%)
Language : Portuguese
Default : No
Forced : No

Text #16
ID : 18
Format : PGS
Muxing mode : zlib
Codec ID : S_HDMV/PGS
Codec ID/Info : Picture based subtitle format used on BDs/HD-DVDs
Duration : 2 h 1 min
Bit rate : 23.9 kb/s
Count of elements : 2186
Stream size : 20.7 MiB (0%)
Language : Romanian
Default : No
Forced : No

Text #17
ID : 19
Format : PGS
Muxing mode : zlib
Codec ID : S_HDMV/PGS
Codec ID/Info : Picture based subtitle format used on BDs/HD-DVDs
Duration : 1 h 57 min
Bit rate : 28.5 kb/s
Count of elements : 2216
Stream size : 24.0 MiB (1%)
Language : Russian
Default : No
Forced : No

Text #18
ID : 20
Format : PGS
Muxing mode : zlib
Codec ID : S_HDMV/PGS
Codec ID/Info : Picture based subtitle format used on BDs/HD-DVDs
Duration : 2 h 1 min
Bit rate : 22.0 kb/s
Count of elements : 2008
Stream size : 19.1 MiB (0%)
Language : Slovenian
Default : No
Forced : No

Text #19
ID : 21
Format : PGS
Muxing mode : zlib
Codec ID : S_HDMV/PGS
Codec ID/Info : Picture based subtitle format used on BDs/HD-DVDs
Duration : 2 h 1 min
Bit rate : 25.0 kb/s
Count of elements : 2434
Stream size : 21.7 MiB (1%)
Language : Thai
Default : No
Forced : No

Text #20
ID : 22
Format : PGS
Muxing mode : zlib
Codec ID : S_HDMV/PGS
Codec ID/Info : Picture based subtitle format used on BDs/HD-DVDs
Duration : 2 h 1 min
Bit rate : 25.4 kb/s
Count of elements : 2414
Stream size : 22.1 MiB (1%)
Language : Turkish
Default : No
Forced : No

Text #21
ID : 23
Format : PGS
Muxing mode : zlib
Codec ID : S_HDMV/PGS
Codec ID/Info : Picture based subtitle format used on BDs/HD-DVDs
Duration : 1 h 54 min
Bit rate : 1 142 b/s
Count of elements : 100
Stream size : 955 KiB (0%)
Language : Czech
Default : No
Forced : No

Menu
00:00:00.000 : :Chapter 1
00:10:28.795 : :Chapter 2
00:21:01.302 : :Chapter 3
00:28:45.057 : :Chapter 4
00:38:14.501 : :Chapter 5
00:46:21.654 : :Chapter 6
00:56:19.293 : :Chapter 7
01:04:41.169 : :Chapter 8
01:15:41.746 : :Chapter 9
01:26:16.046 : :Chapter 10
01:37:02.692 : :Chapter 11
01:45:50.386 : :Chapter 12
01:55:44.771 : :Chapter 13

Trackers


Trackers history

Date
2 weeks ago 13 3 54
2 weeks ago 0 0 0

Files


Related

DLTitleUpCreatedSize💬
Joker (2019) 1080p Bluray 10-bit x265 HEVC AC3 5 1 [XannyFamily]
2 weeks ago 2 weeks ago 4.18 GBs 0 13 3 54
Joker (2019) 1080p Bluray 10-bit x265 HEVC TrueHD 7 1 AC3 5 1 [XannyFamily]
1 month ago 1 month ago 7.76 GBs 0 1 0 0
Impractical Jokers The Movie (2020) [1080p] [WEBRip] [5 1] [YTS MX]
5 months ago 8 months ago 1.7 GBs 0 377 74 261
Impractical Jokers The Movie (2020) [720p] [BluRay] [YTS MX]
5 months ago 5 months ago 849.21 MBs 0 546 377 1K
Joker 2019 720p BRRip x264-EAST
9 months ago 9 months ago 2.46 GBs 2 0 0 0
Joker (2019) [2160p] [4K] [BluRay] [HDR] [5 1] [YTS LT]
10 months ago 10 months ago 5.99 GBs 0 0 0 0
Joker 2019 German AC3 DL 1080p WEB HEVC x265-WHQuAlitY
10 months ago 10 months ago 6.46 GBs 0 0 0 0
Joker 2019 BD-PsO
10 months ago 10 months ago 804.97 MBs 0 1 0 0
Joker 2019 BluRay 1080p TrueHD7 1 x264-CHD
11 months ago 11 months ago 12.96 GBs 0 0 0 0
Joker 2019 1080p WEB-DL DD5 1 H264-FGT
11 months ago 11 months ago 4.7 GBs 0 0 0 0

Comments

Unidentified:




Magnet4You Torrentz2 PirateIro API Contact Torrent4You