BrowseTrendingLibraryHelp




Title:

Kingsman The Secret Service (2014) UNCUT 1080p Bluray 10-bit x265 HEVC DTS 5 1 [XannyFamily]

Health:

Seeders : 26 Leechers: 20 Peers : 46 Completed : 26

Update:

3 weeks ago

Rating:

0 0 0

Created:

2 weeks ago

Uploaded:

2 weeks ago

Hash:

a0241ab4176d1020b4cc6ee1dc7cdb20b023956d

a0241ab4176d1020b4cc6ee1dc7cdb20b023956d

Size:

4.63 GBs

Download:

Views:

70

Tags:

Kingsman The Secret Service 2014 UNCUT 1080p Bluray 10 bit x265 HEVC DTS XannyFamily

Category:

movies

Share:

http://torrent4you.me/torrent/70018

Comment:

“There is nothing noble in being superior to your fellow man; true nobility is being superior to your former self.”

Description

General
Unique ID : 78097819788043637667092245313954413276 (0x3AC117CD0541E6F524836588D31E7ADC)
Complete name : /Volumes/sammy/Kingsman (2014) UNCUT 1080p Bluray 10-bit x265 HEVC DTS 5.1 [XannyFamily].mkv
Format : Matroska
Format version : Version 4
File size : 4.63 GiB
Duration : 2 h 8 min
Overall bit rate : 5 144 kb/s
Movie name : Kingsman: The Secret Service (2014) UNCUT 1080p Bluray [XannyFamily]
Released date : 13 December 2014
Encoded date : UTC 2020-11-14 20:06:25
Writing application : HandBrake 1.3.3 2020061500
Writing library : Lavf58.29.100
ErrorDetectionType : Per level 1
ARTIST : Colin Firth, Taron Egerton, Samuel L. Jackson, Michael Caine
DIRECTOR : Matthew Vaughn
GENRE : Action spy comedy
SYNOPSIS : A spy organisation recruits a promising street kid into the agency's training program, while a global threat emerges from a twisted tech genius.

Video
ID : 1
Format : HEVC
Format/Info : High Efficiency Video Coding
Format profile : Main [email protected]@Main
Codec ID : V_MPEGH/ISO/HEVC
Duration : 2 h 8 min
Bit rate : 3 533 kb/s
Width : 1 920 pixels
Height : 804 pixels
Display aspect ratio : 2.40:1
Frame rate mode : Constant
Frame rate : 23.976 (24000/1001) FPS
Color space : YUV
Chroma subsampling : 4:2:0
Bit depth : 10 bits
Bits/(Pixel*Frame) : 0.095
Stream size : 3.18 GiB (69%)
Writing library : x265 3.2.1+1-b5c86a64bbbe:[Linux][GCC 9.3.0][64 bit] 10bit
Encoding settings : cpuid=1111039 / frame-threads=3 / wpp / no-pmode / no-pme / no-psnr / no-ssim / log-level=2 / input-csp=1 / input-res=1920x804 / interlace=0 / total-frames=0 / level-idc=0 / high-tier=1 / uhd-bd=0 / ref=3 / no-allow-non-conformance / no-repeat-headers / annexb / no-aud / no-hrd / info / hash=0 / no-temporal-layers / open-gop / min-keyint=24 / keyint=240 / gop-lookahead=0 / bframes=4 / b-adapt=2 / b-pyramid / bframe-bias=0 / rc-lookahead=20 / lookahead-slices=5 / scenecut=40 / radl=0 / no-splice / no-intra-refresh / ctu=64 / min-cu-size=8 / no-rect / no-amp / max-tu-size=32 / tu-inter-depth=1 / tu-intra-depth=1 / limit-tu=0 / rdoq-level=0 / dynamic-rd=0.00 / no-ssim-rd / signhide / no-tskip / nr-intra=0 / nr-inter=0 / no-constrained-intra / strong-intra-smoothing / max-merge=3 / limit-refs=1 / no-limit-modes / me=1 / subme=2 / merange=57 / temporal-mvp / no-hme / weightp / no-weightb / no-analyze-src-pics / deblock=0:0 / sao / no-sao-non-deblock / rd=3 / selective-sao=4 / early-skip / rskip / no-fast-intra / no-tskip-fast / no-cu-lossless / b-intra / no-splitrd-skip / rdpenalty=0 / psy-rd=2.00 / psy-rdoq=0.00 / no-rd-refine / no-lossless / cbqpoffs=0 / crqpoffs=0 / rc=crf / crf=18.0 / qcomp=0.60 / qpstep=4 / stats-write=0 / stats-read=0 / ipratio=1.40 / pbratio=1.30 / aq-mode=2 / aq-strength=1.00 / cutree / zone-count=0 / no-strict-cbr / qg-size=32 / no-rc-grain / qpmax=69 / qpmin=0 / no-const-vbv / sar=1 / overscan=0 / videoformat=5 / range=0 / colorprim=1 / transfer=1 / colormatrix=1 / chromaloc=0 / display-window=0 / cll=0,0 / min-luma=0 / max-luma=1023 / log2-max-poc-lsb=8 / vui-timing-info / vui-hrd-info / slices=1 / no-opt-qp-pps / no-opt-ref-list-length-pps / no-multi-pass-opt-rps / scenecut-bias=0.05 / no-opt-cu-delta-qp / no-aq-motion / no-hdr / no-hdr-opt / no-dhdr10-opt / no-idr-recovery-sei / analysis-reuse-level=5 / scale-factor=0 / refine-intra=0 / refine-inter=0 / refine-mv=1 / refine-ctu-distortion=0 / no-limit-sao / ctu-info=0 / no-lowpass-dct / refine-analysis-type=0 / copy-pic=1 / max-ausize-factor=1.0 / no-dynamic-refine / no-single-sei / no-hevc-aq / no-svt / no-field / qp-adaptation-range=1.00
Default : Yes
Forced : No
Color range : Limited
Color primaries : BT.709
Transfer characteristics : BT.709
Matrix coefficients : BT.709

Audio
ID : 2
Format : DTS ES
Format/Info : Digital Theater Systems
Commercial name : DTS-ES Matrix
Codec ID : A_DTS
Duration : 2 h 8 min
Bit rate mode : Constant
Bit rate : 1 509 kb/s
Channel(s) : 6 channels
Channel(s)_Original : 7 channels
ChannelLayout_Original : C L R Ls Rs Cs LFE
Sampling rate : 48.0 kHz
Frame rate : 93.750 FPS (512 SPF)
Bit depth : 24 bits
Compression mode : Lossy
Stream size : 1.36 GiB (29%)
Title : DTS Core Audio Surround 5.1
Language : English
Default : Yes
Forced : No

Text
ID : 3
Format : ASS
Codec ID : S_TEXT/ASS
Codec ID/Info : Advanced Sub Station Alpha
Duration : 2 h 1 min
Compression mode : Lossless
Title : Full English Subtitles
Language : English
Default : No
Forced : No

Menu
00:00:00.000 : :00:00:00.000
00:02:55.467 : :00:02:55.466
00:04:50.665 : :00:04:50.665
00:08:34.180 : :00:08:34.180
00:11:49.876 : :00:11:49.875
00:13:04.575 : :00:13:04.575
00:15:57.999 : :00:15:57.998
00:18:25.980 : :00:18:25.979
00:23:48.052 : :00:23:48.051
00:25:37.327 : :00:25:37.327
00:29:53.750 : :00:29:53.750
00:32:25.277 : :00:32:25.276
00:33:48.026 : :00:33:47.900
00:37:01.469 : :00:37:01.469
00:38:49.619 : :00:38:49.618
00:42:46.022 : :00:42:46.021
00:45:03.868 : :00:45:03.867
00:47:42.276 : :00:47:42.276
00:53:47.558 : :00:53:47.557
00:57:28.195 : :00:57:28.194
01:03:29.514 : :01:03:29.514
01:05:21.918 : :01:05:21.876
01:10:27.932 : :01:10:27.932
01:13:10.219 : :01:13:10.219
01:15:01.956 : :01:15:01.955
01:16:58.197 : :01:16:58.196
01:23:03.812 : :01:23:03.812
01:25:57.402 : :01:25:57.402
01:31:21.309 : :01:31:21.309
01:34:38.798 : :01:34:38.798
01:36:27.949 : :01:36:27.948
01:39:59.994 : :01:39:59.994
01:44:07.867 : :01:44:07.866
01:50:31.083 : :01:50:31.082
01:58:21.219 : :01:58:21.219
01:59:38.588 : :01:59:38.462

Trackers


Trackers history

Date
2 weeks ago 26 20 26
2 weeks ago 0 0 0

Files


Related

DLTitleUpCreatedSize💬
Kingsman The Secret Service (2014) UNCUT 1080p Bluray 10-bit x265 HEVC DTS 5 1 [XannyFamily]
2 weeks ago 2 weeks ago 4.63 GBs 0 26 20 26
Kingsman The Secret Service (2014) Uncut 720p BDRip [DD 2 0 Hindi Audio] (B2TS) mkv
1 year ago 1 year ago 1.52 GBs 0 0 0 0
Kingsman Il cerchio d'oro - The Golden Circle (2017) h264 ita eng sub ita eng MIRCrew
2 years ago 2 years ago 1.97 GBs 0 467 102 12K
Kingsman The Golden Circle 2017 720p_BDRip_[scarabey org] mkv
2 years ago 2 years ago 4.68 GBs 0 3 8 2
Kingsman The Golden Circle 2017_HDRip___[scarabey org] avi
2 years ago 2 years ago 2.11 GBs 0 17 13 40
Kingsman The Golden Circle (2017) BDRip 1080p MegaPeer (qqss44) mkv
2 years ago 2 years ago 7.5 GBs 0 123 54 218
Kingsman The Golden Circle 2017 BDRip 1 46Gb MegaPeer
2 years ago 2 years ago 1.46 GBs 0 497 56 1K
Kingsman The Golden Circle 2017 BDRip 1080p ExKinoRay mkv
2 years ago 2 years ago 11.72 GBs 0 303 74 916
Kingsman The Golden Circle 2017 720p Esub BluRay Dual Audio English Hindi GOPISAHI
2 years ago 2 years ago 981.61 MBs 0 18 4 41K
Kingsman - The Golden Circle 2017 (1080p Bluray x265 HEVC 10bit AAC 7 1 Tigole)
2 years ago 2 years ago 6.28 GBs 0 11 3 28K

Comments

Unidentified:




Magnet4You Torrentz2 PirateIro API Contact Torrent4You