BrowseTrendingLibraryHelp




Title:

The Hitchhiker's Guide to the Galaxy (2005) Bluray 10-bit x265 HEVC AC3 5 1 [XannyFamily]

Health:

Seeders : 1 Leechers: 13 Peers : 14 Completed : 3

Update:

3 weeks ago

Rating:

0 0 0

Created:

2 weeks ago

Uploaded:

2 weeks ago

Hash:

793b0f582ec857a1784f39bc465c941956d93272

793b0f582ec857a1784f39bc465c941956d93272

Size:

4.17 GBs

Download:

Views:

116

Tags:

The Hitchhiker Guide to the Galaxy 2005 Bluray 10 bit x265 HEVC AC3 XannyFamily

Category:

movies

Share:

http://torrent4you.me/torrent/70029

Comment:

Don’t panic

Description

The Hitchhiker's Guide to the Galaxy (2005) 1080p Bluray 10-bit x265 HEVC AC3 5.1 [XannyFamily]

General
Unique ID : 247571959243756101964179195188568913011 (0xBA409FFE059B5FE4D420DC79ADCBF473)
Complete name : /Volumes/sammy/The Hitchhikers Guide to the Galaxy (2005) Bluray 10-bit x265 HEVC AC3 5.1 [XannyFamily].mkv
Format : Matroska
Format version : Version 4
File size : 4.17 GiB
Duration : 1 h 48 min
Overall bit rate : 5 484 kb/s
Movie name : The Hitchhiker's Guide to the Galaxy (2005) Bluray x265 [XannyFamily]
Description : So long and thanks for all the fish!
Released date : 28 April 2005
Encoded date : UTC 2020-11-15 14:51:49
Writing application : HandBrake 1.3.3 2020061500
Writing library : Lavf58.29.100
ErrorDetectionType : Per level 1
ARTIST : Martin Freeman, Yasiin Bey, Sam Rockwell
DIRECTOR : Garth Jennings
GENRE : Sci-fi comedy
SYNOPSIS : Mere seconds before the Earth is to be demolished by an alien construction crew, journeyman Arthur Dent is swept off the planet by his friend Ford Prefect, a researcher penning a new edition of "The Hitchhiker's Guide to the Galaxy."

Video
ID : 1
Format : HEVC
Format/Info : High Efficiency Video Coding
Format profile : Main [email protected]@Main
Codec ID : V_MPEGH/ISO/HEVC
Duration : 1 h 48 min
Bit rate : 4 735 kb/s
Width : 1 920 pixels
Height : 800 pixels
Display aspect ratio : 2.40:1
Frame rate mode : Constant
Frame rate : 23.976 (24000/1001) FPS
Color space : YUV
Chroma subsampling : 4:2:0
Bit depth : 10 bits
Bits/(Pixel*Frame) : 0.129
Stream size : 3.60 GiB (86%)
Writing library : x265 3.2.1+1-b5c86a64bbbe:[Linux][GCC 9.3.0][64 bit] 10bit
Encoding settings : cpuid=1111039 / frame-threads=3 / wpp / no-pmode / no-pme / no-psnr / no-ssim / log-level=2 / input-csp=1 / input-res=1920x800 / interlace=0 / total-frames=0 / level-idc=0 / high-tier=1 / uhd-bd=0 / ref=3 / no-allow-non-conformance / no-repeat-headers / annexb / no-aud / no-hrd / info / hash=0 / no-temporal-layers / open-gop / min-keyint=24 / keyint=240 / gop-lookahead=0 / bframes=4 / b-adapt=2 / b-pyramid / bframe-bias=0 / rc-lookahead=20 / lookahead-slices=5 / scenecut=40 / radl=0 / no-splice / no-intra-refresh / ctu=64 / min-cu-size=8 / no-rect / no-amp / max-tu-size=32 / tu-inter-depth=1 / tu-intra-depth=1 / limit-tu=0 / rdoq-level=0 / dynamic-rd=0.00 / no-ssim-rd / signhide / no-tskip / nr-intra=0 / nr-inter=0 / no-constrained-intra / strong-intra-smoothing / max-merge=3 / limit-refs=1 / no-limit-modes / me=1 / subme=2 / merange=57 / temporal-mvp / no-hme / weightp / no-weightb / no-analyze-src-pics / deblock=0:0 / sao / no-sao-non-deblock / rd=3 / selective-sao=4 / early-skip / rskip / no-fast-intra / no-tskip-fast / no-cu-lossless / b-intra / no-splitrd-skip / rdpenalty=0 / psy-rd=2.00 / psy-rdoq=0.00 / no-rd-refine / no-lossless / cbqpoffs=0 / crqpoffs=0 / rc=crf / crf=20.0 / qcomp=0.60 / qpstep=4 / stats-write=0 / stats-read=0 / ipratio=1.40 / pbratio=1.30 / aq-mode=2 / aq-strength=1.00 / cutree / zone-count=0 / no-strict-cbr / qg-size=32 / no-rc-grain / qpmax=69 / qpmin=0 / no-const-vbv / sar=1 / overscan=0 / videoformat=5 / range=0 / colorprim=1 / transfer=1 / colormatrix=1 / chromaloc=0 / display-window=0 / cll=0,0 / min-luma=0 / max-luma=1023 / log2-max-poc-lsb=8 / vui-timing-info / vui-hrd-info / slices=1 / no-opt-qp-pps / no-opt-ref-list-length-pps / no-multi-pass-opt-rps / scenecut-bias=0.05 / no-opt-cu-delta-qp / no-aq-motion / no-hdr / no-hdr-opt / no-dhdr10-opt / no-idr-recovery-sei / analysis-reuse-level=5 / scale-factor=0 / refine-intra=0 / refine-inter=0 / refine-mv=1 / refine-ctu-distortion=0 / no-limit-sao / ctu-info=0 / no-lowpass-dct / refine-analysis-type=0 / copy-pic=1 / max-ausize-factor=1.0 / no-dynamic-refine / no-single-sei / no-hevc-aq / no-svt / no-field / qp-adaptation-range=1.00
Default : Yes
Forced : No
Color range : Limited
Color primaries : BT.709
Transfer characteristics : BT.709
Matrix coefficients : BT.709

Audio
ID : 2
Format : AC-3
Format/Info : Audio Coding 3
Commercial name : Dolby Digital
Codec ID : A_AC3
Duration : 1 h 48 min
Bit rate mode : Constant
Bit rate : 640 kb/s
Channel(s) : 6 channels
Channel layout : L R C LFE Ls Rs
Sampling rate : 48.0 kHz
Frame rate : 31.250 FPS (1536 SPF)
Compression mode : Lossy
Delay relative to video : -5 ms
Stream size : 498 MiB (12%)
Title : Dolby Digital Surround 5.1 (AC3)
Language : English
Service kind : Complete Main
Default : Yes
Forced : No

Text
ID : 3
Format : ASS
Codec ID : S_TEXT/ASS
Codec ID/Info : Advanced Sub Station Alpha
Duration : 1 h 46 min
Compression mode : Lossless
Title : English
Language : English
Default : No
Forced : No

Menu
00:00:00.000 : :00:00:00.000
00:03:53.275 : :00:03:53.233
00:06:46.823 : :00:06:46.781
00:12:57.485 : :00:12:57.485
00:14:33.289 : :00:14:33.247
00:18:34.822 : :00:18:34.697
00:25:41.415 : :00:25:41.331
00:30:17.316 : :00:30:17.274
00:34:33.321 : :00:34:33.321
00:40:06.362 : :00:40:06.321
00:43:55.633 : :00:43:55.633
00:48:41.794 : :00:48:41.669
00:52:33.984 : :00:52:33.984
00:56:34.766 : :00:56:34.766
01:01:03.827 : :01:01:03.827
01:06:15.972 : :01:06:15.889
01:10:18.798 : :01:10:18.798
01:14:02.021 : :01:14:01.979
01:18:38.631 : :01:18:38.631
01:23:06.482 : :01:23:06.356
01:26:01.490 : :01:26:01.448
01:30:46.358 : :01:30:46.316
01:35:49.786 : :01:35:49.786
01:41:53.941 : :01:41:53.816

Trackers


Trackers history

Date
2 weeks ago 1 13 3
2 weeks ago 0 0 0

Files


Related

DLTitleUpCreatedSize💬
The Hitchhiker's Guide to the Galaxy (2005) Bluray 10-bit x265 HEVC AC3 5 1 [XannyFamily]
2 weeks ago 2 weeks ago 4.17 GBs 0 1 13 3

Comments

Unidentified:




Magnet4You Torrentz2 PirateIro API Contact Torrent4You