BrowseTrendingLibraryHelp




Title:

The Great Gatsby (2013) 1080p Bluray 10-bit x265 HEVC AC3 5 1 [XannyFamily]

Health:

Seeders : 13 Leechers: 4 Peers : 17 Completed : 73

Update:

2 weeks ago

Rating:

0 0 0

Created:

2 weeks ago

Uploaded:

2 weeks ago

Hash:

683fcbf006af7391a68378c52d8a9b436f219042

683fcbf006af7391a68378c52d8a9b436f219042

Size:

4.73 GBs

Download:

Views:

112

Tags:

The Great Gatsby 2013 1080p Bluray 10 bit x265 HEVC AC3 XannyFamily

Category:

movies

Share:

http://torrent4you.me/torrent/70031

Comment:

Enjoy, old sport.

Description

General
Unique ID : 195244974598891977481823673743520074730 (0x92E2D0766E53CB773AEAABE8CBD88BEA)
Complete name : /Volumes/sammy/The Great Gatsby (2013) 1080p Bluray 10-bit x265 HEVC AC3 5.1 [XannyFamily].mkv
Format : Matroska
Format version : Version 4
File size : 4.73 GiB
Duration : 2 h 22 min
Overall bit rate : 4 763 kb/s
Movie name : The Great Gatsby (2013) Bluray 10-bit x265 HEVC AC3 5.1 [XannyFamily]
Released date : 1 May 2013
Encoded date : UTC 2020-11-14 23:40:48
Writing application : HandBrake 1.3.3 2020061500
Writing library : Lavf58.29.100
ErrorDetectionType : Per level 1
ARTIST : Leonardo DiCaprio, Carey Mulligan, Joel Edgerton
DIRECTOR : Baz Luhrmann
GENRE : Drama
SYNOPSIS : A writer and wall street trader, Nick, finds himself drawn to the past and lifestyle of his millionaire neighbor, Jay Gatsby.

Video
ID : 1
Format : HEVC
Format/Info : High Efficiency Video Coding
Format profile : Main [email protected]@Main
Codec ID : V_MPEGH/ISO/HEVC
Duration : 2 h 22 min
Bit rate : 4 028 kb/s
Width : 1 920 pixels
Height : 800 pixels
Display aspect ratio : 2.40:1
Frame rate mode : Constant
Frame rate : 23.976 (24000/1001) FPS
Color space : YUV
Chroma subsampling : 4:2:0
Bit depth : 10 bits
Bits/(Pixel*Frame) : 0.109
Stream size : 4.00 GiB (85%)
Writing library : x265 3.2.1+1-b5c86a64bbbe:[Linux][GCC 9.3.0][64 bit] 10bit
Encoding settings : cpuid=1111039 / frame-threads=3 / wpp / no-pmode / no-pme / no-psnr / no-ssim / log-level=2 / input-csp=1 / input-res=1920x800 / interlace=0 / total-frames=0 / level-idc=0 / high-tier=1 / uhd-bd=0 / ref=3 / no-allow-non-conformance / no-repeat-headers / annexb / no-aud / no-hrd / info / hash=0 / no-temporal-layers / open-gop / min-keyint=24 / keyint=240 / gop-lookahead=0 / bframes=4 / b-adapt=2 / b-pyramid / bframe-bias=0 / rc-lookahead=20 / lookahead-slices=5 / scenecut=40 / radl=0 / no-splice / no-intra-refresh / ctu=64 / min-cu-size=8 / no-rect / no-amp / max-tu-size=32 / tu-inter-depth=1 / tu-intra-depth=1 / limit-tu=0 / rdoq-level=0 / dynamic-rd=0.00 / no-ssim-rd / signhide / no-tskip / nr-intra=0 / nr-inter=0 / no-constrained-intra / strong-intra-smoothing / max-merge=3 / limit-refs=1 / no-limit-modes / me=1 / subme=2 / merange=57 / temporal-mvp / no-hme / weightp / no-weightb / no-analyze-src-pics / deblock=0:0 / sao / no-sao-non-deblock / rd=3 / selective-sao=4 / early-skip / rskip / no-fast-intra / no-tskip-fast / no-cu-lossless / b-intra / no-splitrd-skip / rdpenalty=0 / psy-rd=2.00 / psy-rdoq=0.00 / no-rd-refine / no-lossless / cbqpoffs=0 / crqpoffs=0 / rc=crf / crf=20.0 / qcomp=0.60 / qpstep=4 / stats-write=0 / stats-read=0 / ipratio=1.40 / pbratio=1.30 / aq-mode=2 / aq-strength=1.00 / cutree / zone-count=0 / no-strict-cbr / qg-size=32 / no-rc-grain / qpmax=69 / qpmin=0 / no-const-vbv / sar=1 / overscan=0 / videoformat=5 / range=0 / colorprim=1 / transfer=1 / colormatrix=1 / chromaloc=0 / display-window=0 / cll=0,0 / min-luma=0 / max-luma=1023 / log2-max-poc-lsb=8 / vui-timing-info / vui-hrd-info / slices=1 / no-opt-qp-pps / no-opt-ref-list-length-pps / no-multi-pass-opt-rps / scenecut-bias=0.05 / no-opt-cu-delta-qp / no-aq-motion / no-hdr / no-hdr-opt / no-dhdr10-opt / no-idr-recovery-sei / analysis-reuse-level=5 / scale-factor=0 / refine-intra=0 / refine-inter=0 / refine-mv=1 / refine-ctu-distortion=0 / no-limit-sao / ctu-info=0 / no-lowpass-dct / refine-analysis-type=0 / copy-pic=1 / max-ausize-factor=1.0 / no-dynamic-refine / no-single-sei / no-hevc-aq / no-svt / no-field / qp-adaptation-range=1.00
Default : Yes
Forced : No
Color range : Limited
Color primaries : BT.709
Transfer characteristics : BT.709
Matrix coefficients : BT.709

Audio
ID : 2
Format : AC-3
Format/Info : Audio Coding 3
Commercial name : Dolby Digital
Codec ID : A_AC3
Duration : 2 h 22 min
Bit rate mode : Constant
Bit rate : 640 kb/s
Channel(s) : 6 channels
Channel layout : L R C LFE Ls Rs
Sampling rate : 48.0 kHz
Frame rate : 31.250 FPS (1536 SPF)
Compression mode : Lossy
Delay relative to video : -5 ms
Stream size : 651 MiB (13%)
Title : Dolby Digital Surround 5.1 (AC3)
Language : English
Service kind : Complete Main
Default : Yes
Forced : No

Text
ID : 3
Format : ASS
Codec ID : S_TEXT/ASS
Codec ID/Info : Advanced Sub Station Alpha
Duration : 2 h 22 min
Compression mode : Lossless
Title : English
Language : English
Default : No
Forced : No

Menu
00:00:00.000 : :00:00:00.000
00:11:04.164 : :00:11:04.080
00:22:55.916 : :00:22:55.833
00:34:27.023 : :00:34:26.898
00:44:48.853 : :00:44:48.728
00:55:36.416 : :00:55:36.333
01:06:20.685 : :01:06:20.643
01:18:27.786 : :01:18:27.786
01:31:13.927 : :01:31:13.927
01:44:12.079 : :01:44:11.954
01:56:35.280 : :01:56:35.155
02:05:46.247 : :02:05:46.122
02:09:41.107 : :02:09:40.982

Trackers


Trackers history

Date
2 weeks ago 13 4 73
2 weeks ago 0 0 0

Files


Related

DLTitleUpCreatedSize💬
The Great Gatsby (2013) 1080p Bluray 10-bit x265 HEVC AC3 5 1 [XannyFamily]
2 weeks ago 2 weeks ago 4.73 GBs 0 13 4 73
VA - 100 Greatest 2019 Songs (Best Songs Of The Year) (2019) (Opus ~128)
3 weeks ago 3 weeks ago 326.48 MBs 0 4 3 83
VA - 100 Greatest Number Ones (The Best No 1s Ever) (2019) [99 tracks] (Opus ~128)
1 month ago 2 months ago 345.68 MBs 0 9 2 324
VA - 100 Greatest Australian Singles Of The '60s (2015 Remastered) (Opus ~128)
2 months ago 2 months ago 249.77 MBs 0 13 1 94
VA - 100 Greatest Indie; The Best Guitar Pop Rock (2019) (Opus ~128)
5 months ago 5 months ago 353.1 MBs 0 15 1 94
VA - 100 Greatest Country; The Best Hits From Nashville And Beyond (2020) (Opus ~128)
5 months ago 5 months ago 327.17 MBs 0 3 3 247
100 Greatest 60s Golden Oldies From The Sixties (2020)
5 months ago 5 months ago 640.29 MBs 0 117 36 2K
VA - 100 Greatest 10s; The Best Songs Of Last Decade (Opus ~128)
6 months ago 6 months ago 331.64 MBs 0 14 5 109
The Great SEASON 1 S01 720p 10bit WEBRip 2CH x265 HEVC-PSA
6 months ago 6 months ago 2.4 GBs 0 36 58 139
The Great S01 2160p HULU WEBRip DDP5 1 x265-MIXED[rartv]
6 months ago 6 months ago 56.86 GBs 0 3 8 0

Comments

Unidentified:




Magnet4You Torrentz2 PirateIro API Contact Torrent4You