BrowseTrendingLibraryHelp




Title:

Secretary (2002) Bluray 10-bit x265 HEVC EAC3 5 1 [XannyFamily]

Health:

Seeders : 2 Leechers: 3 Peers : 5 Completed : 9

Update:

6 days ago

Rating:

1 0 0

Created:

6 days ago

Uploaded:

5 days ago

Hash:

cb6996dc581baaece402e0bf7ca6960f21156c3c

cb6996dc581baaece402e0bf7ca6960f21156c3c

Size:

6.44 GBs

Download:

Views:

65

Tags:

Secretary 2002 Bluray 10 bit x265 HEVC EAC3 XannyFamily

Category:

movies

Share:

http://torrent4you.me/torrent/70086

Comment:

XannyFamily <3

Description

Secretary (2002) 1080p Bluray 10-bit x265 HEVC EAC3 5.1 [XannyFamily]

General
Unique ID : 247279359059286844281506234684693485286 (0xBA0845B07ACCF7122458C8A9446716E6)
Complete name : /Volumes/sammy/Secretary (2002) Bluray 10-bit x265 HEVC EAC3 5.1 [XannyFamily].mkv
Format : Matroska
Format version : Version 4
File size : 6.44 GiB
Duration : 1 h 51 min
Overall bit rate : 8 299 kb/s
Movie name : Secretary (2002) Bluray 10-bit x265 HEVC EAC3 5.1 [XannyFamily]
Description : Happy spankings from the XannyFamily
Released date : 11 January 2002
Encoded date : UTC 2020-11-12 09:47:44
Writing application : HandBrake 1.3.3 2020061500
Writing library : Lavf58.29.100
ErrorDetectionType : Per level 1
ARTIST : Maggie Gyllenhaal and James Spader
DIRECTOR : Steven Shainberg
GENRE : Kinky romance
SUMMARY : A legit BDSM love story
SYNOPSIS : A young woman, recently released from a mental hospital, gets a job as a secretary to a demanding lawyer, where their employer-employee relationship turns into a sexual, sadomasochistic one.

Video
ID : 1
Format : HEVC
Format/Info : High Efficiency Video Coding
Format profile : Main [email protected]@Main
Codec ID : V_MPEGH/ISO/HEVC
Duration : 1 h 51 min
Bit rate : 7 174 kb/s
Width : 1 920 pixels
Height : 1 080 pixels
Display aspect ratio : 16:9
Frame rate mode : Constant
Frame rate : 23.976 (24000/1001) FPS
Color space : YUV
Chroma subsampling : 4:2:0
Bit depth : 10 bits
Bits/(Pixel*Frame) : 0.144
Stream size : 5.57 GiB (86%)
Writing library : x265 3.2.1+1-b5c86a64bbbe:[Linux][GCC 9.3.0][64 bit] 10bit
Encoding settings : cpuid=1111039 / frame-threads=3 / wpp / no-pmode / no-pme / no-psnr / no-ssim / log-level=2 / input-csp=1 / input-res=1920x1080 / interlace=0 / total-frames=0 / level-idc=0 / high-tier=1 / uhd-bd=0 / ref=3 / no-allow-non-conformance / no-repeat-headers / annexb / no-aud / no-hrd / info / hash=0 / no-temporal-layers / open-gop / min-keyint=24 / keyint=240 / gop-lookahead=0 / bframes=4 / b-adapt=2 / b-pyramid / bframe-bias=0 / rc-lookahead=20 / lookahead-slices=6 / scenecut=40 / radl=0 / no-splice / no-intra-refresh / ctu=64 / min-cu-size=8 / no-rect / no-amp / max-tu-size=32 / tu-inter-depth=1 / tu-intra-depth=1 / limit-tu=0 / rdoq-level=0 / dynamic-rd=0.00 / no-ssim-rd / signhide / no-tskip / nr-intra=0 / nr-inter=0 / no-constrained-intra / strong-intra-smoothing / max-merge=3 / limit-refs=1 / no-limit-modes / me=1 / subme=2 / merange=57 / temporal-mvp / no-hme / weightp / no-weightb / no-analyze-src-pics / deblock=0:0 / sao / no-sao-non-deblock / rd=3 / selective-sao=4 / early-skip / rskip / no-fast-intra / no-tskip-fast / no-cu-lossless / b-intra / no-splitrd-skip / rdpenalty=0 / psy-rd=2.00 / psy-rdoq=0.00 / no-rd-refine / no-lossless / cbqpoffs=0 / crqpoffs=0 / rc=crf / crf=20.0 / qcomp=0.60 / qpstep=4 / stats-write=0 / stats-read=0 / ipratio=1.40 / pbratio=1.30 / aq-mode=2 / aq-strength=1.00 / cutree / zone-count=0 / no-strict-cbr / qg-size=32 / no-rc-grain / qpmax=69 / qpmin=0 / no-const-vbv / sar=1 / overscan=0 / videoformat=5 / range=0 / colorprim=1 / transfer=1 / colormatrix=1 / chromaloc=0 / display-window=0 / cll=0,0 / min-luma=0 / max-luma=1023 / log2-max-poc-lsb=8 / vui-timing-info / vui-hrd-info / slices=1 / no-opt-qp-pps / no-opt-ref-list-length-pps / no-multi-pass-opt-rps / scenecut-bias=0.05 / no-opt-cu-delta-qp / no-aq-motion / no-hdr / no-hdr-opt / no-dhdr10-opt / no-idr-recovery-sei / analysis-reuse-level=5 / scale-factor=0 / refine-intra=0 / refine-inter=0 / refine-mv=1 / refine-ctu-distortion=0 / no-limit-sao / ctu-info=0 / no-lowpass-dct / refine-analysis-type=0 / copy-pic=1 / max-ausize-factor=1.0 / no-dynamic-refine / no-single-sei / no-hevc-aq / no-svt / no-field / qp-adaptation-range=1.00
Default : Yes
Forced : No
Color range : Limited
Color primaries : BT.709
Transfer characteristics : BT.709
Matrix coefficients : BT.709

Audio
ID : 2
Format : E-AC-3
Format/Info : Enhanced AC-3
Commercial name : Dolby Digital Plus
Codec ID : A_EAC3
Duration : 1 h 51 min
Bit rate mode : Constant
Bit rate : 960 kb/s
Channel(s) : 6 channels
Channel layout : L R C LFE Ls Rs
Sampling rate : 48.0 kHz
Frame rate : 31.250 FPS (1536 SPF)
Compression mode : Lossy
Delay relative to video : -5 ms
Stream size : 763 MiB (12%)
Title : Dolby Digital Plus 5.1 (EAC3)
Language : English
Service kind : Complete Main
Default : Yes
Forced : No

Text #1
ID : 3
Format : PGS
Codec ID : S_HDMV/PGS
Codec ID/Info : Picture based subtitle format used on BDs/HD-DVDs
Duration : 1 h 45 min
Language : English
Default : No
Forced : No

Text #2
ID : 4
Format : PGS
Codec ID : S_HDMV/PGS
Codec ID/Info : Picture based subtitle format used on BDs/HD-DVDs
Duration : 1 h 45 min
Language : Spanish
Default : No
Forced : No

Menu
00:00:00.000 : :The Institute
00:07:21.858 : :My Accident
00:12:22.784 : :Secretary Wanted
00:19:57.947 : :In The Garbage
00:24:50.823 : :I'm Not Here
00:30:51.558 : :Peter
00:35:40.388 : :Peter's Parents
00:46:20.778 : :Shy
00:55:05.594 : :Come Into My office
00:59:31.109 : :"I'm Your Man"
01:04:55.600 : :The Worm Letter
01:10:38.443 : :You're Fired
01:21:36.183 : :The Wedding
01:27:20.569 : :Hunger Strike
01:36:23.736 : :"Chariots Rise"
01:44:41.442 : :An Everyday Life

Trackers


Trackers history

Date
5 days ago 2 3 9
5 days ago 0 0 0

Files


Related

DLTitleUpCreatedSize💬
Secretary (2002) Bluray 10-bit x265 HEVC EAC3 5 1 [XannyFamily]
5 days ago 6 days ago 6.44 GBs 0 2 3 9
Secretary (2002) 1080p Bluray 10-bit x265 HEVC DTS-HD 7 1 [XannyFamily]
1 month ago 1 month ago 8.5 GBs 0 0 0 0
What’s Wrong With Secretary Kim (Τι δεν πάει καλά με την γραμματέα Κιμ) - 2018
7 months ago 7 months ago 4.26 GBs 5 1 0 0
Indian Abuses Harasses Young Secretary Chudai Dirty Hindi Audio Sex Story - 720p x264 WEBRip MP4
1 year ago 1 year ago 144.65 MBs 0 60 7 2K
Indian Abuses Harasses Young Secretary Chudai Dirty Hindi Audio Sex Story - HD [720p] MP4
1 year ago 1 year ago 144.65 MBs 0 34 5 1K
DESI INDIAN SECRETARY NUDE SEX AND PISSING mp4
1 year ago 1 year ago 70.41 MBs 0 0 37 0
Madam Secretary S05E10 HDTV x264-KILLERS[eztv] mkv
1 year ago 1 year ago 248.63 MBs 0 1040 189 4K
SECRETARY (2002) DVDRip H265 HEVC AAC [XannyFamily] mkv
1 year ago 1 year ago 716.96 MBs 0 1 1 28
Secretary (2002) [BluRay] [1080p] [YTS AM]
2 years ago 2 years ago 1.77 GBs 0 29 8 3K
Secretary (2002) [BluRay] [720p] [YTS AM]
2 years ago 2 years ago 939.53 MBs 0 729 645 4K

Comments

Unidentified:




Magnet4You Torrentz2 PirateIro API Contact Torrent4You