BrowseTrendingLibraryHelp




Title:

Hot Fuzz (2007) 1080p Bluray 10-bit x265 HEVC AC3 5 1 [XannyFamily]

Health:

Seeders : 24 Leechers: 31 Peers : 55 Completed : 35

Update:

5 days ago

Rating:

0 0 0

Created:

4 days ago

Uploaded:

4 days ago

Hash:

9592fb51a6d17d070aaf35c46f04c588dcc3c25a

9592fb51a6d17d070aaf35c46f04c588dcc3c25a

Size:

3.25 GBs

Download:

Views:

94

Tags:

Hot Fuzz 2007 1080p Bluray 10 bit x265 HEVC AC3 5 XannyFamily

Category:

movies

Share:

http://torrent4you.me/torrent/70111

Comment:

XannyFamily <3

Description

General
Unique ID : 132606904655153108894197061799151668767 (0x63C3292D84627C58493BB07ED4F40E1F)
Complete name : /Volumes/sammy/Hot Fuzz (2007) 1080p Bluray 10-bit x265 HEVC AC3 5.1 [XannyFamily].mkv
Format : Matroska
Format version : Version 4
File size : 3.25 GiB
Duration : 2 h 0 min
Overall bit rate : 3 852 kb/s
Movie name : Hot Fuzz (2007) 1080p Bluray 10-bit x265 HEVC AC3 5.1 [XannyFamily]
Description : "When's your birthday?" "22nd of February." "What year?" "Every year!"
Released date : 14 February 2007
Encoded date : UTC 2020-11-19 22:30:10
Writing application : HandBrake 1.3.3 2020061500
Writing library : Lavf58.29.100
ErrorDetectionType : Per level 1
ARTIST : Simon Pegg, Nick Frost, Martin Freeman
DIRECTOR : Edgar Wright
GENRE : Action comedy
SYNOPSIS : A skilled London police officer is transferred to a small town with a dark secret.

Video
ID : 1
Format : HEVC
Format/Info : High Efficiency Video Coding
Format profile : Main [email protected]@Main
Codec ID : V_MPEGH/ISO/HEVC
Duration : 2 h 0 min
Bit rate : 3 135 kb/s
Width : 1 920 pixels
Height : 816 pixels
Display aspect ratio : 2.35:1
Frame rate mode : Constant
Frame rate : 23.976 (24000/1001) FPS
Color space : YUV
Chroma subsampling : 4:2:0
Bit depth : 10 bits
Bits/(Pixel*Frame) : 0.083
Stream size : 2.65 GiB (81%)
Writing library : x265 3.2.1+1-b5c86a64bbbe:[Linux][GCC 9.3.0][64 bit] 10bit
Encoding settings : cpuid=1111039 / frame-threads=3 / wpp / no-pmode / no-pme / no-psnr / no-ssim / log-level=2 / input-csp=1 / input-res=1920x816 / interlace=0 / total-frames=0 / level-idc=0 / high-tier=1 / uhd-bd=0 / ref=3 / no-allow-non-conformance / no-repeat-headers / annexb / no-aud / no-hrd / info / hash=0 / no-temporal-layers / open-gop / min-keyint=24 / keyint=240 / gop-lookahead=0 / bframes=4 / b-adapt=2 / b-pyramid / bframe-bias=0 / rc-lookahead=20 / lookahead-slices=5 / scenecut=40 / radl=0 / no-splice / no-intra-refresh / ctu=64 / min-cu-size=8 / no-rect / no-amp / max-tu-size=32 / tu-inter-depth=1 / tu-intra-depth=1 / limit-tu=0 / rdoq-level=0 / dynamic-rd=0.00 / no-ssim-rd / signhide / no-tskip / nr-intra=0 / nr-inter=0 / no-constrained-intra / strong-intra-smoothing / max-merge=3 / limit-refs=1 / no-limit-modes / me=1 / subme=2 / merange=57 / temporal-mvp / no-hme / weightp / no-weightb / no-analyze-src-pics / deblock=0:0 / sao / no-sao-non-deblock / rd=3 / selective-sao=4 / early-skip / rskip / no-fast-intra / no-tskip-fast / no-cu-lossless / b-intra / no-splitrd-skip / rdpenalty=0 / psy-rd=2.00 / psy-rdoq=0.00 / no-rd-refine / no-lossless / cbqpoffs=0 / crqpoffs=0 / rc=crf / crf=20.0 / qcomp=0.60 / qpstep=4 / stats-write=0 / stats-read=0 / ipratio=1.40 / pbratio=1.30 / aq-mode=2 / aq-strength=1.00 / cutree / zone-count=0 / no-strict-cbr / qg-size=32 / no-rc-grain / qpmax=69 / qpmin=0 / no-const-vbv / sar=1 / overscan=0 / videoformat=5 / range=0 / colorprim=1 / transfer=1 / colormatrix=1 / chromaloc=0 / display-window=0 / cll=0,0 / min-luma=0 / max-luma=1023 / log2-max-poc-lsb=8 / vui-timing-info / vui-hrd-info / slices=1 / no-opt-qp-pps / no-opt-ref-list-length-pps / no-multi-pass-opt-rps / scenecut-bias=0.05 / no-opt-cu-delta-qp / no-aq-motion / no-hdr / no-hdr-opt / no-dhdr10-opt / no-idr-recovery-sei / analysis-reuse-level=5 / scale-factor=0 / refine-intra=0 / refine-inter=0 / refine-mv=1 / refine-ctu-distortion=0 / no-limit-sao / ctu-info=0 / no-lowpass-dct / refine-analysis-type=0 / copy-pic=1 / max-ausize-factor=1.0 / no-dynamic-refine / no-single-sei / no-hevc-aq / no-svt / no-field / qp-adaptation-range=1.00
Default : Yes
Forced : No
Color range : Limited
Color primaries : BT.709
Transfer characteristics : BT.709
Matrix coefficients : BT.709

Audio
ID : 2
Format : AC-3
Format/Info : Audio Coding 3
Commercial name : Dolby Digital
Codec ID : A_AC3
Duration : 2 h 0 min
Bit rate mode : Constant
Bit rate : 640 kb/s
Channel(s) : 6 channels
Channel layout : L R C LFE Ls Rs
Sampling rate : 48.0 kHz
Frame rate : 31.250 FPS (1536 SPF)
Compression mode : Lossy
Delay relative to video : -5 ms
Stream size : 553 MiB (17%)
Title : Dolby Digital Surround 5.1 (AC3)
Language : English
Service kind : Complete Main
Default : Yes
Forced : No

Text
ID : 3
Format : ASS
Codec ID : S_TEXT/ASS
Codec ID/Info : Advanced Sub Station Alpha
Duration : 1 h 55 min
Compression mode : Lossless
Title : Full English Subtitles
Language : English
Default : No
Forced : No

Menu
00:00:00.000 : :Extreme Service
00:02:26.313 : :Administrative Decision
00:05:23.281 : :Hard Goodbye
00:07:15.810 : :Tough Distance
00:12:10.021 : :Deep Evening
00:14:07.347 : :Sudden Morning
00:21:39.256 : :Villiage Force
00:25:47.671 : :Avian Breakout
00:28:46.391 : :Maximum Running
00:32:08.468 : :Speed Duty
00:35:27.667 : :Sham Dram
00:39:07.637 : :Double Death
00:42:11.863 : :Rural Weapon
00:44:56.194 : :Furious Binge
00:49:26.797 : :Man Heat
00:54:58.295 : :Evil Fete
01:01:44.951 : :Mild Intrigue
01:09:24.285 : :Smug Suspect
01:16:58.572 : :Broken Spirit
01:19:14.875 : :Dark Gathering
01:28:59.251 : :Deadly Services
01:31:40.245 : :Avenging Angel
01:41:13.859 : :Total Bullets
01:45:30.407 : :Terminal Screech
01:50:49.017 : :Final Chapter
01:52:01.840 : :Final Chapter Part II
01:53:54.661 : :Final Chapter: The Final Chapter
01:55:14.699 : :The End

Trackers


Trackers history

Date
4 days ago 24 31 35
4 days ago 0 0 0
4 days ago 0 0 0

Files


Related

DLTitleUpCreatedSize💬
Hot Fuzz (2007) 1080p Bluray 10-bit x265 HEVC AC3 5 1 [XannyFamily]
4 days ago 4 days ago 3.25 GBs 0 24 31 35

Comments

Unidentified:




Magnet4You Torrentz2 PirateIro API Contact Torrent4You