BrowseTrendingLibraryHelp




Title:

Limitless (2011) 1080p Bluray 10-bit x265 HEVC EAC3 5 1 [XannyFamily]

Health:

Seeders : 14 Leechers: 3 Peers : 17 Completed : 73

Update:

4 weeks ago

Rating:

0 0 0

Created:

4 weeks ago

Uploaded:

4 weeks ago

Hash:

f07f5bcf0a965118a9927850f0e6b9f77949bc2a

f07f5bcf0a965118a9927850f0e6b9f77949bc2a

Size:

3.79 GBs

Download:

Views:

53

Tags:

Limitless 2011 1080p Bluray 10 bit x265 HEVC EAC3 1 XannyFamily

Category:

movies

Share:

http://torrent4you.me/torrent/70530

Comment:

Adderall…

Description

General
Unique ID : 237635734560924221755360519101984778470 (0xB2C6FA4ADB81FC9E203C120C8897A8E6)
Complete name : /Volumes/Samorphine/Limitless (2011) 1080p Bluray 10-bit x265 HEVC EAC3 5.1 [XannyFamily].mkv
Format : Matroska
Format version : Version 4
File size : 3.79 GiB
Duration : 1 h 45 min
Overall bit rate : 5 146 kb/s
Movie name : Limitless (2011) 1080p [XannyFamily]
Encoded date : UTC 2020-12-19 16:12:16
Writing application : HandBrake 1.3.3 2020061500
Writing library : Lavf58.29.100
ErrorDetectionType : Per level 1
SUMMARY : A documentary about Adderall

Video
ID : 1
Format : HEVC
Format/Info : High Efficiency Video Coding
Format profile : Main [email protected]@Main
Codec ID : V_MPEGH/ISO/HEVC
Duration : 1 h 45 min
Bit rate : 4 275 kb/s
Width : 1 920 pixels
Height : 800 pixels
Display aspect ratio : 2.40:1
Frame rate mode : Constant
Frame rate : 23.976 (24000/1001) FPS
Color space : YUV
Chroma subsampling : 4:2:0
Bit depth : 10 bits
Bits/(Pixel*Frame) : 0.116
Stream size : 3.15 GiB (83%)
Writing library : x265 3.2.1+1-b5c86a64bbbe:[Linux][GCC 9.3.0][64 bit] 10bit
Encoding settings : cpuid=1111039 / frame-threads=3 / wpp / no-pmode / no-pme / no-psnr / no-ssim / log-level=2 / input-csp=1 / input-res=1920x800 / interlace=0 / total-frames=0 / level-idc=0 / high-tier=1 / uhd-bd=0 / ref=3 / no-allow-non-conformance / no-repeat-headers / annexb / no-aud / no-hrd / info / hash=0 / no-temporal-layers / open-gop / min-keyint=24 / keyint=240 / gop-lookahead=0 / bframes=4 / b-adapt=2 / b-pyramid / bframe-bias=0 / rc-lookahead=20 / lookahead-slices=5 / scenecut=40 / radl=0 / no-splice / no-intra-refresh / ctu=64 / min-cu-size=8 / no-rect / no-amp / max-tu-size=32 / tu-inter-depth=1 / tu-intra-depth=1 / limit-tu=0 / rdoq-level=0 / dynamic-rd=0.00 / no-ssim-rd / signhide / no-tskip / nr-intra=0 / nr-inter=0 / no-constrained-intra / strong-intra-smoothing / max-merge=3 / limit-refs=1 / no-limit-modes / me=1 / subme=2 / merange=57 / temporal-mvp / no-hme / weightp / no-weightb / no-analyze-src-pics / deblock=0:0 / sao / no-sao-non-deblock / rd=3 / selective-sao=4 / early-skip / rskip / no-fast-intra / no-tskip-fast / no-cu-lossless / b-intra / no-splitrd-skip / rdpenalty=0 / psy-rd=2.00 / psy-rdoq=0.00 / no-rd-refine / no-lossless / cbqpoffs=0 / crqpoffs=0 / rc=crf / crf=19.0 / qcomp=0.60 / qpstep=4 / stats-write=0 / stats-read=0 / ipratio=1.40 / pbratio=1.30 / aq-mode=2 / aq-strength=1.00 / cutree / zone-count=0 / no-strict-cbr / qg-size=32 / no-rc-grain / qpmax=69 / qpmin=0 / no-const-vbv / sar=1 / overscan=0 / videoformat=5 / range=0 / colorprim=1 / transfer=1 / colormatrix=1 / chromaloc=0 / display-window=0 / cll=0,0 / min-luma=0 / max-luma=1023 / log2-max-poc-lsb=8 / vui-timing-info / vui-hrd-info / slices=1 / no-opt-qp-pps / no-opt-ref-list-length-pps / no-multi-pass-opt-rps / scenecut-bias=0.05 / no-opt-cu-delta-qp / no-aq-motion / no-hdr / no-hdr-opt / no-dhdr10-opt / no-idr-recovery-sei / analysis-reuse-level=5 / scale-factor=0 / refine-intra=0 / refine-inter=0 / refine-mv=1 / refine-ctu-distortion=0 / no-limit-sao / ctu-info=0 / no-lowpass-dct / refine-analysis-type=0 / copy-pic=1 / max-ausize-factor=1.0 / no-dynamic-refine / no-single-sei / no-hevc-aq / no-svt / no-field / qp-adaptation-range=1.00
Default : Yes
Forced : No
Color range : Limited
Color primaries : BT.709
Transfer characteristics : BT.709
Matrix coefficients : BT.709

Audio
ID : 2
Format : E-AC-3
Format/Info : Enhanced AC-3
Commercial name : Dolby Digital Plus
Codec ID : A_EAC3
Duration : 1 h 45 min
Bit rate mode : Constant
Bit rate : 768 kb/s
Channel(s) : 6 channels
Channel layout : L R C LFE Ls Rs
Sampling rate : 48.0 kHz
Frame rate : 31.250 FPS (1536 SPF)
Compression mode : Lossy
Delay relative to video : -5 ms
Stream size : 580 MiB (15%)
Title : Dolby Digital Plus Surround 5.1
Language : English
Service kind : Complete Main
Default : Yes
Forced : No

Text
ID : 3
Format : PGS
Codec ID : S_HDMV/PGS
Codec ID/Info : Picture based subtitle format used on BDs/HD-DVDs
Duration : 1 h 45 min
Title : Full English Subtitles
Language : English
Default : No
Forced : No

Menu
00:00:00.000 : :Chapter 1
00:03:49.146 : :Chapter 2
00:06:56.166 : :Chapter 3
00:11:05.707 : :Chapter 4
00:16:28.404 : :Chapter 5
00:20:40.322 : :Chapter 6
00:24:21.043 : :Chapter 7
00:28:55.901 : :Chapter 8
00:34:09.297 : :Chapter 9
00:38:20.256 : :Chapter 10
00:42:26.627 : :Chapter 11
00:47:04.030 : :Chapter 12
00:51:24.290 : :Chapter 13
00:54:45.699 : :Chapter 14
00:59:37.074 : :Chapter 15
01:05:59.831 : :Chapter 16
01:09:08.144 : :Chapter 17
01:12:11.994 : :Chapter 18
01:15:12.466 : :Chapter 19
01:18:52.603 : :Chapter 20
01:22:20.436 : :Chapter 21
01:27:53.894 : :Chapter 22
01:32:30.128 : :Chapter 23
01:39:01.644 : :Chapter 24

Trackers


Trackers history

Date
4 weeks ago 14 3 73
4 weeks ago 0 0 0

Files


Related

DLTitleUpCreatedSize💬
Limitless (2011) 1080p Bluray 10-bit x265 HEVC EAC3 5 1 [XannyFamily]
4 weeks ago 4 weeks ago 3.79 GBs 0 14 3 73
Billions S05E07 The Limitless Sht 1080p AMZN WEBRip DDP5 1 x264-NTb[rarbg]
7 months ago 7 months ago 2.83 GBs 0 2 8 2
Limitless (2011) 1080p
3 years ago 8 years ago 1.4 GBs 0 148 64 71K
Limitless (2011)
3 years ago 8 years ago 751.31 MBs 0 205 13 294K
Limitless 2011 UNRATED TRUEFRENCH DVDRiP XViD-AViTECH avi
3 years ago 9 years ago 699.61 MBs 0 38 2 7K
Deep Purple - Limitless (2017) [FLAC]
3 years ago 3 years ago 308.95 MBs 0 22 1 2K

Comments

Unidentified:




Magnet4You Torrentz2 PirateIro API Contact Torrent4You