BrowseTrendingLibraryHelp




Title:

I Robot (2004) 1080p Bluray 10-bit x265 HEVC AC3 5 1 [XannyFamily]

Health:

Seeders : 0 Leechers: 0 Peers : 0 Completed : 0

Update:

4 weeks ago

Rating:

0 0 0

Created:

4 weeks ago

Uploaded:

4 weeks ago

Hash:

b550d4ab70172e7c4ec3c12582036184a6049858

b550d4ab70172e7c4ec3c12582036184a6049858

Size:

3.64 GBs

Download:

Views:

52

Tags:

Robot 2004 1080p Bluray 10 bit x265 HEVC AC3 5 XannyFamily

Category:

movies

Share:

http://torrent4you.me/torrent/70557


Description

General
Unique ID : 281241931980896993448615403596145101865 (0xD39539D0C6E351AE8A52D1F53F5A0C29)
Complete name : /Volumes/Samorphine/I Robot (2004) 1080p Bluray 10-bit x265 HEVC AC3 5.1 [XannyFamily].mkv
Format : Matroska
Format version : Version 4
File size : 3.64 GiB
Duration : 1 h 54 min
Overall bit rate : 4 541 kb/s
Movie name : I, Robot (2004) 1080p [XannyFamily]
Encoded date : UTC 2020-12-15 23:55:52
Writing application : mkvmerge v51.0.0 ('I Wish') 64-bit
Writing library : libebml v1.4.0 + libmatroska v1.6.2 / Lavf58.29.100

Video
ID : 1
Format : HEVC
Format/Info : High Efficiency Video Coding
Format profile : Main [email protected]@Main
Codec ID : V_MPEGH/ISO/HEVC
Duration : 1 h 54 min
Bit rate : 3 899 kb/s
Width : 1 920 pixels
Height : 816 pixels
Display aspect ratio : 2.35:1
Frame rate mode : Constant
Frame rate : 23.976 (24000/1001) FPS
Color space : YUV
Chroma subsampling : 4:2:0
Bit depth : 10 bits
Bits/(Pixel*Frame) : 0.104
Stream size : 3.12 GiB (86%)
Title : I, Robot (2004)
Writing library : x265 3.2.1+1-b5c86a64bbbe:[Linux][GCC 9.3.0][64 bit] 10bit
Encoding settings : cpuid=1111039 / frame-threads=3 / wpp / no-pmode / no-pme / no-psnr / no-ssim / log-level=2 / input-csp=1 / input-res=1920x816 / interlace=0 / total-frames=0 / level-idc=0 / high-tier=1 / uhd-bd=0 / ref=3 / no-allow-non-conformance / no-repeat-headers / annexb / no-aud / no-hrd / info / hash=0 / no-temporal-layers / open-gop / min-keyint=24 / keyint=240 / gop-lookahead=0 / bframes=4 / b-adapt=2 / b-pyramid / bframe-bias=0 / rc-lookahead=20 / lookahead-slices=5 / scenecut=40 / radl=0 / no-splice / no-intra-refresh / ctu=64 / min-cu-size=8 / no-rect / no-amp / max-tu-size=32 / tu-inter-depth=1 / tu-intra-depth=1 / limit-tu=0 / rdoq-level=0 / dynamic-rd=0.00 / no-ssim-rd / signhide / no-tskip / nr-intra=0 / nr-inter=0 / no-constrained-intra / strong-intra-smoothing / max-merge=3 / limit-refs=1 / no-limit-modes / me=1 / subme=2 / merange=57 / temporal-mvp / no-hme / weightp / no-weightb / no-analyze-src-pics / deblock=0:0 / sao / no-sao-non-deblock / rd=3 / selective-sao=4 / early-skip / rskip / no-fast-intra / no-tskip-fast / no-cu-lossless / b-intra / no-splitrd-skip / rdpenalty=0 / psy-rd=2.00 / psy-rdoq=0.00 / no-rd-refine / no-lossless / cbqpoffs=0 / crqpoffs=0 / rc=crf / crf=19.0 / qcomp=0.60 / qpstep=4 / stats-write=0 / stats-read=0 / ipratio=1.40 / pbratio=1.30 / aq-mode=2 / aq-strength=1.00 / cutree / zone-count=0 / no-strict-cbr / qg-size=32 / no-rc-grain / qpmax=69 / qpmin=0 / no-const-vbv / sar=1 / overscan=0 / videoformat=5 / range=0 / colorprim=1 / transfer=1 / colormatrix=1 / chromaloc=0 / display-window=0 / cll=0,0 / min-luma=0 / max-luma=1023 / log2-max-poc-lsb=8 / vui-timing-info / vui-hrd-info / slices=1 / no-opt-qp-pps / no-opt-ref-list-length-pps / no-multi-pass-opt-rps / scenecut-bias=0.05 / no-opt-cu-delta-qp / no-aq-motion / no-hdr / no-hdr-opt / no-dhdr10-opt / no-idr-recovery-sei / analysis-reuse-level=5 / scale-factor=0 / refine-intra=0 / refine-inter=0 / refine-mv=1 / refine-ctu-distortion=0 / no-limit-sao / ctu-info=0 / no-lowpass-dct / refine-analysis-type=0 / copy-pic=1 / max-ausize-factor=1.0 / no-dynamic-refine / no-single-sei / no-hevc-aq / no-svt / no-field / qp-adaptation-range=1.00
Language : English
Default : Yes
Forced : No
Color range : Limited
Color primaries : BT.709
Transfer characteristics : BT.709
Matrix coefficients : BT.709

Audio
ID : 2
Format : AC-3
Format/Info : Audio Coding 3
Commercial name : Dolby Digital
Codec ID : A_AC3
Duration : 1 h 54 min
Bit rate mode : Constant
Bit rate : 640 kb/s
Channel(s) : 6 channels
Channel layout : L R C LFE Ls Rs
Sampling rate : 48.0 kHz
Frame rate : 31.250 FPS (1536 SPF)
Compression mode : Lossy
Delay relative to video : -5 ms
Stream size : 525 MiB (14%)
Title : Dolby Digital Surround 5.1
Language : English
Service kind : Complete Main
Default : Yes
Forced : No

Text
ID : 3
Format : ASS
Codec ID : S_TEXT/ASS
Codec ID/Info : Advanced Sub Station Alpha
Duration : 1 h 44 min
Bit rate : 74 b/s
Count of elements : 940
Compression mode : Lossless
Stream size : 56.5 KiB (0%)
Title : Full English Subtitles
Language : English
Default : No
Forced : No

Menu
00:00:00.000 : :Chapter 01
00:15:00.000 : :Chapter 02
00:30:00.000 : :Chapter 03
00:45:00.000 : :Chapter 04
01:00:00.000 : :Chapter 05
01:15:00.000 : :Chapter 06
01:30:00.000 : :Chapter 07
01:45:00.000 : :Chapter 08

Trackers


Trackers history

Date
4 weeks ago 0 0 0
4 weeks ago 0 0 0
4 weeks ago 0 0 0

Files


Related

DLTitleUpCreatedSize💬
I Robot (2004) 1080p Bluray 10-bit x265 HEVC AC3 5 1 [XannyFamily]
4 weeks ago 4 weeks ago 3.64 GBs 0 0 0 0
See No Evil S06E11 Can I Help You WEB h264-ROBOTS[eztv io] mkv
7 months ago 7 months ago 345.41 MBs 0 46 3 80
The Real Housewives of Beverly Hills S10E05 Let The Mouse Go WEB x264-ROBOTS[eztv] mkv
8 months ago 8 months ago 611.93 MBs 0 106 48 182
Mr Robot S04E11 WEBRip x264-ION10
1 year ago 1 year ago 503.59 MBs 0 6 0 1K
Mr Robot 2015 COMPLETE SERIES 720p AMZN WEBRip x264-GalaxyTV[TGx]
1 year ago 1 year ago 9.15 GBs 0 0 0 0
[ Torrent9 cz ] Mr Robot S01 FRENCH BDRiP XviD-ASPHiXiAS
1 year ago 1 year ago 4.2 GBs 0 231 174 458
RecoveryRobot Pro 1 1 + Crack zip
1 year ago 1 year ago 3.99 MBs 0 0 0 0
ExtraMovies trade - I, Robot (2004) Dual Audio [Hindi-English] 1080p BluRay ESubs mkv
2 years ago 2 years ago 2.37 GBs 0 1 1 56
Robot Carnival (1987) [BluRay] [720p] [YTS AM]
2 years ago 2 years ago 797.17 MBs 0 136 28 1K
Robot Carnival (1987) [BluRay] [1080p] [YTS AM]
2 years ago 2 years ago 1.49 GBs 0 217 49 1K

Comments

Unidentified:




Magnet4You Torrentz2 PirateIro API Contact Torrent4You