BrowseTrendingLibraryHelp




Title:

Kingsman The Golden Circle (2017) 1080p Bluray 10-bit x265 HEVC DTS 5 1 [XannyFamily]

Health:

Seeders : 8 Leechers: 5 Peers : 13 Completed : 92

Update:

3 weeks ago

Rating:

0 0 0

Created:

3 weeks ago

Uploaded:

3 weeks ago

Hash:

ae1de0444cfb59380e58f30865f170e21fb5a5bd

ae1de0444cfb59380e58f30865f170e21fb5a5bd

Size:

5.9 GBs

Download:

Views:

53

Tags:

Kingsman The Golden Circle 2017 1080p Bluray 10 bit x265 HEVC DTS XannyFamily

Category:

movies

Share:

http://torrent4you.me/torrent/70563


Description

General
Unique ID : 13029379797593833553827990485586576799 (0x9CD5E05772FB602D92945B2A96E859F)
Complete name : /Volumes/Samorphine/Kingsman The Golden Circle (2017) 1080p Bluray 10-bit x265 HEVC DTS 5.1 [XannyFamily].mkv
Format : Matroska
Format version : Version 4
File size : 5.90 GiB
Duration : 2 h 21 min
Overall bit rate : 5 986 kb/s
Movie name : Kingsman: The Golden Circle (2017) 1080p [XannyFamily]
Encoded date : UTC 2020-12-19 20:21:12
Writing application : HandBrake 1.3.3 2020061500
Writing library : Lavf58.29.100
ErrorDetectionType : Per level 1

Video
ID : 1
Format : HEVC
Format/Info : High Efficiency Video Coding
Format profile : Main [email protected]@Main
Codec ID : V_MPEGH/ISO/HEVC
Duration : 2 h 21 min
Bit rate : 4 358 kb/s
Width : 1 920 pixels
Height : 804 pixels
Display aspect ratio : 2.40:1
Frame rate mode : Constant
Frame rate : 23.976 (24000/1001) FPS
Color space : YUV
Chroma subsampling : 4:2:0
Bit depth : 10 bits
Bits/(Pixel*Frame) : 0.118
Stream size : 4.29 GiB (73%)
Writing library : x265 3.2.1+1-b5c86a64bbbe:[Linux][GCC 9.3.0][64 bit] 10bit
Encoding settings : cpuid=1111039 / frame-threads=3 / wpp / no-pmode / no-pme / no-psnr / no-ssim / log-level=2 / input-csp=1 / input-res=1920x804 / interlace=0 / total-frames=0 / level-idc=0 / high-tier=1 / uhd-bd=0 / ref=3 / no-allow-non-conformance / no-repeat-headers / annexb / no-aud / no-hrd / info / hash=0 / no-temporal-layers / open-gop / min-keyint=24 / keyint=240 / gop-lookahead=0 / bframes=4 / b-adapt=2 / b-pyramid / bframe-bias=0 / rc-lookahead=20 / lookahead-slices=5 / scenecut=40 / radl=0 / no-splice / no-intra-refresh / ctu=64 / min-cu-size=8 / no-rect / no-amp / max-tu-size=32 / tu-inter-depth=1 / tu-intra-depth=1 / limit-tu=0 / rdoq-level=0 / dynamic-rd=0.00 / no-ssim-rd / signhide / no-tskip / nr-intra=0 / nr-inter=0 / no-constrained-intra / strong-intra-smoothing / max-merge=3 / limit-refs=1 / no-limit-modes / me=1 / subme=2 / merange=57 / temporal-mvp / no-hme / weightp / no-weightb / no-analyze-src-pics / deblock=0:0 / sao / no-sao-non-deblock / rd=3 / selective-sao=4 / early-skip / rskip / no-fast-intra / no-tskip-fast / no-cu-lossless / b-intra / no-splitrd-skip / rdpenalty=0 / psy-rd=2.00 / psy-rdoq=0.00 / no-rd-refine / no-lossless / cbqpoffs=0 / crqpoffs=0 / rc=crf / crf=18.0 / qcomp=0.60 / qpstep=4 / stats-write=0 / stats-read=0 / ipratio=1.40 / pbratio=1.30 / aq-mode=2 / aq-strength=1.00 / cutree / zone-count=0 / no-strict-cbr / qg-size=32 / no-rc-grain / qpmax=69 / qpmin=0 / no-const-vbv / sar=1 / overscan=0 / videoformat=5 / range=0 / colorprim=1 / transfer=1 / colormatrix=1 / chromaloc=0 / display-window=0 / cll=0,0 / min-luma=0 / max-luma=1023 / log2-max-poc-lsb=8 / vui-timing-info / vui-hrd-info / slices=1 / no-opt-qp-pps / no-opt-ref-list-length-pps / no-multi-pass-opt-rps / scenecut-bias=0.05 / no-opt-cu-delta-qp / no-aq-motion / no-hdr / no-hdr-opt / no-dhdr10-opt / no-idr-recovery-sei / analysis-reuse-level=5 / scale-factor=0 / refine-intra=0 / refine-inter=0 / refine-mv=1 / refine-ctu-distortion=0 / no-limit-sao / ctu-info=0 / no-lowpass-dct / refine-analysis-type=0 / copy-pic=1 / max-ausize-factor=1.0 / no-dynamic-refine / no-single-sei / no-hevc-aq / no-svt / no-field / qp-adaptation-range=1.00
Default : Yes
Forced : No
Color range : Limited
Color primaries : BT.709
Transfer characteristics : BT.709
Matrix coefficients : BT.709

Audio
ID : 2
Format : DTS
Format/Info : Digital Theater Systems
Codec ID : A_DTS
Duration : 2 h 21 min
Bit rate mode : Constant
Bit rate : 1 509 kb/s
Channel(s) : 6 channels
Channel layout : C L R Ls Rs LFE
Sampling rate : 48.0 kHz
Frame rate : 93.750 FPS (512 SPF)
Bit depth : 24 bits
Compression mode : Lossy
Stream size : 1.49 GiB (25%)
Title : DTS Core Surround 5.1
Language : English
Default : Yes
Forced : No

Text
ID : 3
Format : ASS
Codec ID : S_TEXT/ASS
Codec ID/Info : Advanced Sub Station Alpha
Duration : 1 h 22 min
Compression mode : Lossless
Title : Full English Subtitles
Language : English
Default : No
Forced : No

Menu
00:00:00.000 : :00:00:00.000
00:04:51.958 : :00:04:51.958
00:09:39.454 : :00:09:39.454
00:13:36.607 : :00:13:36.607
00:18:54.300 : :00:18:54.300
00:24:57.287 : :00:24:57.287
00:28:43.347 : :00:28:43.347
00:32:52.304 : :00:32:52.304
00:39:18.731 : :00:39:18.731
00:43:21.849 : :00:43:21.849
00:48:26.570 : :00:48:26.570
00:53:54.106 : :00:53:54.106
00:58:31.258 : :00:58:31.258
01:05:04.901 : :01:05:04.901
01:09:52.605 : :01:09:52.522
01:13:34.744 : :01:13:34.744
01:19:41.860 : :01:19:41.860
01:23:45.103 : :01:23:45.103
01:28:55.288 : :01:28:55.288
01:33:25.225 : :01:33:25.225
01:40:14.759 : :01:40:14.759
01:45:03.255 : :01:45:03.255
01:49:38.489 : :01:49:38.489
01:55:15.992 : :01:55:15.992
02:01:40.835 : :02:01:40.835
02:05:44.037 : :02:05:44.036
02:12:36.407 : :02:12:36.407
02:15:15.274 : :02:15:15.274

Trackers


Trackers history

Date
3 weeks ago 8 5 92
3 weeks ago 0 0 0

Files


Related

DLTitleUpCreatedSize💬
Kingsman The Golden Circle (2017) 1080p Bluray 10-bit x265 HEVC DTS 5 1 [XannyFamily]
3 weeks ago 3 weeks ago 5.9 GBs 0 8 5 92
Kingsman The Secret Service (2014) UNCUT 1080p Bluray 10-bit x265 HEVC DTS 5 1 [XannyFamily]
2 months ago 2 months ago 4.63 GBs 0 26 20 26
Kingsman The Secret Service (2014) Uncut 720p BDRip [DD 2 0 Hindi Audio] (B2TS) mkv
1 year ago 2 years ago 1.52 GBs 0 0 0 0
Kingsman Il cerchio d'oro - The Golden Circle (2017) h264 ita eng sub ita eng MIRCrew
3 years ago 3 years ago 1.97 GBs 0 467 102 12K
Kingsman The Golden Circle 2017 720p_BDRip_[scarabey org] mkv
3 years ago 3 years ago 4.68 GBs 0 3 8 2
Kingsman The Golden Circle 2017_HDRip___[scarabey org] avi
3 years ago 3 years ago 2.11 GBs 0 17 13 40
Kingsman The Golden Circle (2017) BDRip 1080p MegaPeer (qqss44) mkv
3 years ago 3 years ago 7.5 GBs 0 123 54 218
Kingsman The Golden Circle 2017 BDRip 1 46Gb MegaPeer
3 years ago 3 years ago 1.46 GBs 0 497 56 1K
Kingsman The Golden Circle 2017 BDRip 1080p ExKinoRay mkv
3 years ago 3 years ago 11.72 GBs 0 303 74 916
Kingsman The Golden Circle 2017 720p Esub BluRay Dual Audio English Hindi GOPISAHI
3 years ago 3 years ago 981.61 MBs 0 18 4 41K

Comments

Unidentified:




Magnet4You Torrentz2 PirateIro API Contact Torrent4You