BrowseTrendingLibraryHelp




Title:

American Made (2017) 1080p Bluray 10-bit x265 HEVC EAC3 5 1 [XannyFamily]

Health:

Seeders : 40 Leechers: 67 Peers : 107 Completed : 52

Update:

3 weeks ago

Rating:

0 0 0

Created:

2 weeks ago

Uploaded:

2 weeks ago

Hash:

cae690501177331e7a2e763913e019a7fb0e5573

cae690501177331e7a2e763913e019a7fb0e5573

Size:

3.28 GBs

Download:

Views:

38

Tags:

American Made 2017 1080p Bluray 10 bit x265 HEVC EAC3 5 XannyFamily

Category:

movies

Share:

http://torrent4you.me/torrent/70653


Description

General
Unique ID : 3698204195627641149754525096969060171 (0x2C83F8B59ED72FEA1D3551BE1C93F4B)
Complete name : /Volumes/SammyTypeC/American Made (2017) 1080p Bluray 10-bit x265 HEVC EAC3 5.1 [XannyFamily].mkv
Format : Matroska
Format version : Version 4
File size : 3.28 GiB
Duration : 1 h 54 min
Overall bit rate : 4 078 kb/s
Movie name : American Made (2017) 1080p [XannyFamily]
Encoded date : UTC 2020-12-29 22:40:58
Writing application : HandBrake 1.3.3 2020061500
Writing library : Lavf58.29.100
ErrorDetectionType : Per level 1

Video
ID : 1
Format : HEVC
Format/Info : High Efficiency Video Coding
Format profile : Main [email protected]@Main
Codec ID : V_MPEGH/ISO/HEVC
Duration : 1 h 54 min
Bit rate : 3 229 kb/s
Width : 1 920 pixels
Height : 1 036 pixels
Display aspect ratio : 1.85:1
Frame rate mode : Constant
Frame rate : 23.976 (24000/1001) FPS
Color space : YUV
Chroma subsampling : 4:2:0
Bit depth : 10 bits
Bits/(Pixel*Frame) : 0.068
Stream size : 2.59 GiB (79%)
Writing library : x265 3.2.1+1-b5c86a64bbbe:[Linux][GCC 9.3.0][64 bit] 10bit
Encoding settings : cpuid=1111039 / frame-threads=3 / wpp / no-pmode / no-pme / no-psnr / no-ssim / log-level=2 / input-csp=1 / input-res=1920x1036 / interlace=0 / total-frames=0 / level-idc=0 / high-tier=1 / uhd-bd=0 / ref=3 / no-allow-non-conformance / no-repeat-headers / annexb / no-aud / no-hrd / info / hash=0 / no-temporal-layers / open-gop / min-keyint=24 / keyint=240 / gop-lookahead=0 / bframes=4 / b-adapt=2 / b-pyramid / bframe-bias=0 / rc-lookahead=20 / lookahead-slices=6 / scenecut=40 / radl=0 / no-splice / no-intra-refresh / ctu=64 / min-cu-size=8 / no-rect / no-amp / max-tu-size=32 / tu-inter-depth=1 / tu-intra-depth=1 / limit-tu=0 / rdoq-level=0 / dynamic-rd=0.00 / no-ssim-rd / signhide / no-tskip / nr-intra=0 / nr-inter=0 / no-constrained-intra / strong-intra-smoothing / max-merge=3 / limit-refs=1 / no-limit-modes / me=1 / subme=2 / merange=57 / temporal-mvp / no-hme / weightp / no-weightb / no-analyze-src-pics / deblock=0:0 / sao / no-sao-non-deblock / rd=3 / selective-sao=4 / early-skip / rskip / no-fast-intra / no-tskip-fast / no-cu-lossless / b-intra / no-splitrd-skip / rdpenalty=0 / psy-rd=2.00 / psy-rdoq=0.00 / no-rd-refine / no-lossless / cbqpoffs=0 / crqpoffs=0 / rc=crf / crf=19.0 / qcomp=0.60 / qpstep=4 / stats-write=0 / stats-read=0 / ipratio=1.40 / pbratio=1.30 / aq-mode=2 / aq-strength=1.00 / cutree / zone-count=0 / no-strict-cbr / qg-size=32 / no-rc-grain / qpmax=69 / qpmin=0 / no-const-vbv / sar=1 / overscan=0 / videoformat=5 / range=0 / colorprim=1 / transfer=1 / colormatrix=1 / chromaloc=0 / display-window=0 / cll=0,0 / min-luma=0 / max-luma=1023 / log2-max-poc-lsb=8 / vui-timing-info / vui-hrd-info / slices=1 / no-opt-qp-pps / no-opt-ref-list-length-pps / no-multi-pass-opt-rps / scenecut-bias=0.05 / no-opt-cu-delta-qp / no-aq-motion / no-hdr / no-hdr-opt / no-dhdr10-opt / no-idr-recovery-sei / analysis-reuse-level=5 / scale-factor=0 / refine-intra=0 / refine-inter=0 / refine-mv=1 / refine-ctu-distortion=0 / no-limit-sao / ctu-info=0 / no-lowpass-dct / refine-analysis-type=0 / copy-pic=1 / max-ausize-factor=1.0 / no-dynamic-refine / no-single-sei / no-hevc-aq / no-svt / no-field / qp-adaptation-range=1.00
Default : Yes
Forced : No
Color range : Limited
Color primaries : BT.709
Transfer characteristics : BT.709
Matrix coefficients : BT.709

Audio
ID : 2
Format : E-AC-3
Format/Info : Enhanced AC-3
Commercial name : Dolby Digital Plus
Codec ID : A_EAC3
Duration : 1 h 54 min
Bit rate mode : Constant
Bit rate : 768 kb/s
Channel(s) : 6 channels
Channel layout : L R C LFE Ls Rs
Sampling rate : 48.0 kHz
Frame rate : 31.250 FPS (1536 SPF)
Compression mode : Lossy
Delay relative to video : -5 ms
Stream size : 632 MiB (19%)
Title : Dolby Digital Plus Surround 5.1
Language : English
Service kind : Complete Main
Default : Yes
Forced : No

Text
ID : 3
Format : ASS
Codec ID : S_TEXT/ASS
Codec ID/Info : Advanced Sub Station Alpha
Duration : 1 h 46 min
Compression mode : Lossless
Title : Full English Subtitles
Language : English
Default : No
Forced : No

Menu
00:00:00.000 : :Chapter 1
00:06:00.318 : :Chapter 2
00:10:42.517 : :Chapter 3
00:14:36.501 : :Chapter 4
00:21:19.612 : :Chapter 5
00:27:25.227 : :Chapter 6
00:33:47.692 : :Chapter 7
00:41:02.585 : :Chapter 8
00:46:16.023 : :Chapter 9
00:51:57.114 : :Chapter 10
00:54:59.713 : :Chapter 11
00:59:58.178 : :Chapter 12
01:07:29.837 : :Chapter 13
01:13:06.507 : :Chapter 14
01:17:12.878 : :Chapter 15
01:23:21.330 : :Chapter 16
01:26:16.713 : :Chapter 17
01:33:34.484 : :Chapter 18
01:38:39.455 : :Chapter 19
01:46:16.954 : :Chapter 20

Trackers


Trackers history

Date
2 weeks ago 40 67 52
2 weeks ago 0 0 0
2 weeks ago 0 0 0

Files


Related

DLTitleUpCreatedSize💬
American Made (2017) 1080p Bluray 10-bit x265 HEVC EAC3 5 1 [XannyFamily]
2 weeks ago 2 weeks ago 3.28 GBs 0 40 67 52
American Made 2017 720p_BDRip_[scarabey org] mkv
3 years ago 3 years ago 4.13 GBs 0 19 12 22
American Made (2017) [1080p] [YTS AG]
3 years ago 3 years ago 1.75 GBs 0 2905 605 263K
American Made 2017 TRUEFRENCH BDRip XviD-GZR
3 years ago 3 years ago 1.37 GBs 0 2855 210 55K
American Made 2017 FRENCH BDRip x264-PRiDEHD WwW Torrent9 tv
3 years ago 3 years ago 841.65 MBs 0 962 1031 1K
American Made 2017 MULTi 1080p BluRay x264-LOST WwW Torrent9 tv
3 years ago 3 years ago 8.75 GBs 0 580 1255 637
American Made 2017 FRENCH 720p BluRay x264-VENUE WwW Torrent9 tv
3 years ago 3 years ago 4.37 GBs 0 808 1301 844
American Made 2017 VOSTFR BRRip x264 ACOOL WwW Torrent9 tv
3 years ago 3 years ago 1.14 GBs 0 201 116 297
American Made (2017) [YTS AG]
3 years ago 3 years ago 841.9 MBs 0 2227 365 310K
American Made 2017 1080p BluRay H264 AAC-RARBG
3 years ago 3 years ago 2.2 GBs 0 23 80 25

Comments

Unidentified:




Magnet4You Torrentz2 PirateIro API Contact Torrent4You