BrowseTrendingLibraryHelp




Title:

Rat Race (2001) 1080p WEBRIP 10-bit x265 HEVC EAC3 Opus 5 1 [XannyFamily]

Health:

Seeders : 38 Leechers: 28 Peers : 66 Completed : 143

Update:

3 weeks ago

Rating:

0 0 0

Created:

2 weeks ago

Uploaded:

2 weeks ago

Hash:

0fdac3aa470972270cd1946ad706cae2a061960b

0fdac3aa470972270cd1946ad706cae2a061960b

Size:

5.3 GBs

Download:

Views:

30

Tags:

Rat Race 2001 1080p WEBRIP 10 bit x265 HEVC EAC3 Opus XannyFamily

Category:

movies

Share:

http://torrent4you.me/torrent/70828


Description

General
Unique ID : 110213792851646499530932850726557445329 (0x52EA67865941744C4B5CAE7015D3ECD1)
Complete name : /Volumes/SammyTypeC/Rat Race (2001) 1080p WEBRIP 10-bit x265 HEVC EAC3 Opus 5.1 [XannyFamily].mkv
Format : Matroska
Format version : Version 4
File size : 5.30 GiB
Duration : 1 h 51 min
Overall bit rate : 6 779 kb/s
Movie name : Rat Race (2001) 1080p [XannyFamily]
Encoded date : UTC 2021-01-08 20:27:42
Writing application : mkvmerge v52.0.0 ('Secret For The Mad') 64-bit
Writing library : libebml v1.4.1 + libmatroska v1.6.2 / Lavf58.29.100

Video
ID : 1
Format : HEVC
Format/Info : High Efficiency Video Coding
Format profile : Main [email protected]@Main
Codec ID : V_MPEGH/ISO/HEVC
Duration : 1 h 51 min
Bit rate : 5 630 kb/s
Width : 1 920 pixels
Height : 1 080 pixels
Display aspect ratio : 16:9
Frame rate mode : Constant
Frame rate : 23.976 (24000/1001) FPS
Color space : YUV
Chroma subsampling : 4:2:0
Bit depth : 10 bits
Bits/(Pixel*Frame) : 0.113
Stream size : 4.40 GiB (83%)
Title : Rat Race (2001) 1080p [XannyFamily]
Writing library : x265 3.2.1+1-b5c86a64bbbe:[Linux][GCC 9.3.0][64 bit] 10bit
Encoding settings : cpuid=1111039 / frame-threads=3 / wpp / no-pmode / no-pme / no-psnr / no-ssim / log-level=2 / input-csp=1 / input-res=1920x1080 / interlace=0 / total-frames=0 / level-idc=0 / high-tier=1 / uhd-bd=0 / ref=3 / no-allow-non-conformance / no-repeat-headers / annexb / no-aud / no-hrd / info / hash=0 / no-temporal-layers / open-gop / min-keyint=24 / keyint=240 / gop-lookahead=0 / bframes=4 / b-adapt=2 / b-pyramid / bframe-bias=0 / rc-lookahead=20 / lookahead-slices=6 / scenecut=40 / radl=0 / no-splice / no-intra-refresh / ctu=64 / min-cu-size=8 / no-rect / no-amp / max-tu-size=32 / tu-inter-depth=1 / tu-intra-depth=1 / limit-tu=0 / rdoq-level=0 / dynamic-rd=0.00 / no-ssim-rd / signhide / no-tskip / nr-intra=0 / nr-inter=0 / no-constrained-intra / strong-intra-smoothing / max-merge=3 / limit-refs=1 / no-limit-modes / me=1 / subme=2 / merange=57 / temporal-mvp / no-hme / weightp / no-weightb / no-analyze-src-pics / deblock=0:0 / sao / no-sao-non-deblock / rd=3 / selective-sao=4 / early-skip / rskip / no-fast-intra / no-tskip-fast / no-cu-lossless / b-intra / no-splitrd-skip / rdpenalty=0 / psy-rd=2.00 / psy-rdoq=0.00 / no-rd-refine / no-lossless / cbqpoffs=0 / crqpoffs=0 / rc=crf / crf=20.0 / qcomp=0.60 / qpstep=4 / stats-write=0 / stats-read=0 / ipratio=1.40 / pbratio=1.30 / aq-mode=2 / aq-strength=1.00 / cutree / zone-count=0 / no-strict-cbr / qg-size=32 / no-rc-grain / qpmax=69 / qpmin=0 / no-const-vbv / sar=1 / overscan=0 / videoformat=5 / range=0 / colorprim=1 / transfer=1 / colormatrix=1 / chromaloc=0 / display-window=0 / cll=0,0 / min-luma=0 / max-luma=1023 / log2-max-poc-lsb=8 / vui-timing-info / vui-hrd-info / slices=1 / no-opt-qp-pps / no-opt-ref-list-length-pps / no-multi-pass-opt-rps / scenecut-bias=0.05 / no-opt-cu-delta-qp / no-aq-motion / no-hdr / no-hdr-opt / no-dhdr10-opt / no-idr-recovery-sei / analysis-reuse-level=5 / scale-factor=0 / refine-intra=0 / refine-inter=0 / refine-mv=1 / refine-ctu-distortion=0 / no-limit-sao / ctu-info=0 / no-lowpass-dct / refine-analysis-type=0 / copy-pic=1 / max-ausize-factor=1.0 / no-dynamic-refine / no-single-sei / no-hevc-aq / no-svt / no-field / qp-adaptation-range=1.00
Language : English
Default : Yes
Forced : No
Color range : Limited
Color primaries : BT.709
Transfer characteristics : BT.709
Matrix coefficients : BT.709

Audio #1
ID : 2
Format : E-AC-3
Format/Info : Enhanced AC-3
Commercial name : Dolby Digital Plus
Codec ID : A_EAC3
Duration : 1 h 51 min
Bit rate mode : Constant
Bit rate : 640 kb/s
Channel(s) : 6 channels
Channel layout : L R C LFE Ls Rs
Sampling rate : 48.0 kHz
Frame rate : 31.250 FPS (1536 SPF)
Compression mode : Lossy
Delay relative to video : 136 ms
Stream size : 512 MiB (9%)
Title : Dolby Digital Plus Surround 5.1
Language : English
Service kind : Complete Main
Default : Yes
Forced : No

Audio #2
ID : 3
Format : Opus
Codec ID : A_OPUS
Duration : 1 h 51 min
Bit rate : 328 kb/s
Channel(s) : 6 channels
Channel layout : L R C Lb Rb LFE
Sampling rate : 48.0 kHz
Frame rate : 50.000 FPS (960 SPF)
Compression mode : Lossy
Delay relative to video : 206 ms
Stream size : 263 MiB (5%)
Title : Opus Surround 5.1
Language : English
Default : No
Forced : No

Audio #3
ID : 4
Format : Opus
Codec ID : A_OPUS
Duration : 1 h 51 min
Bit rate : 177 kb/s
Channel(s) : 2 channels
Channel layout : L R
Sampling rate : 48.0 kHz
Frame rate : 50.000 FPS (960 SPF)
Compression mode : Lossy
Delay relative to video : 206 ms
Stream size : 142 MiB (3%)
Title : Opus Stereo 2.0
Language : English
Default : No
Forced : No

Text
ID : 5
Format : ASS
Codec ID : S_TEXT/ASS
Codec ID/Info : Advanced Sub Station Alpha
Duration : 1 h 48 min
Bit rate : 119 b/s
Count of elements : 1677
Compression mode : Lossless
Stream size : 95.0 KiB (0%)
Title : Full English Subtitles
Language : English
Default : No
Forced : No

Trackers


Trackers history

Date
2 weeks ago 38 28 143
2 weeks ago 0 0 0
2 weeks ago 0 0 0

Files


Related

DLTitleUpCreatedSize💬
Rat Race (2001) 1080p WEBRIP 10-bit x265 HEVC EAC3 Opus 5 1 [XannyFamily]
2 weeks ago 2 weeks ago 5.3 GBs 0 38 28 143
BrattySis 18 12 21 Sophia Grace Bunk Mates 480p MP4-XXX
2 years ago 2 years ago 231.7 MBs 0 498 164 4K

Comments

Unidentified:




Magnet4You Torrentz2 PirateIro API Contact Torrent4You