BrowseTrendingLibraryHelp




Title:

Battle Star Wars 2020 ENGLISH BDRIP 1080p X264 AAC-MINION

Health:

Seeders : 1 Leechers: 0 Peers : 1 Completed : 0

Update:

11 months ago

Rating:

1 0 0

Created:

10 months ago

Uploaded:

10 months ago

Hash:

a3ff888099bccf2128bbbf6bd1a82d690d7178b0

a3ff888099bccf2128bbbf6bd1a82d690d7178b0

Size:

4.97 GBs

Download:

Views:

299

Tags:

Battle Star Wars 2020 ENGLISH BDRIP 1080p X264 AAC MINION

Category:

movies

Share:

http://torrent4you.me/torrent/68835


Description

>> MINION PRESENTS

Battle Star Wars - 2020 - USA
https://www.themoviedb.org/movie/667574-battle-star-wars

>> MEDIAINFO

General
Format : Matroska
Format version : Version 4
File size : 4.88 GiB
Duration : 1 h 26 min
Overall bit rate : 8 115 kb/s
Movie name : Battle.Star.Wars.2020.ENGLISH.BDRIP.1080p.X264.AAC-MINION
Encoded date : UTC 2020-09-02 10:35:02
Writing application : mkvmerge v48.0.0 ('Fortress Around Your Heart') 64-bit
Writing library : libebml v1.4.0 + libmatroska v1.6.0

Video
ID : 1
Format : AVC
Format/Info : Advanced Video Codec
Format profile : [email protected]
Format settings : CABAC / 4 Ref Frames
Format settings, CABAC : Yes
Format settings, Reference frames : 4 frames
Codec ID : V_MPEG4/ISO/AVC
Duration : 1 h 26 min
Bit rate : 7 037 kb/s
Width : 1 920 pixels
Height : 806 pixels
Display aspect ratio : 2.40:1
Frame rate mode : Constant
Frame rate : 23.976 (24000/1001) FPS
Color space : YUV
Chroma subsampling : 4:2:0
Bit depth : 8 bits
Scan type : Progressive
Bits/(Pixel*Frame) : 0.190
Stream size : 4.23 GiB (87%)
Title : Battle.Star.Wars.2020.ENGLISH.BDRIP.1080p.X264.AAC-MINION
Writing library : x264 core 157 r2935 545de2f
Encoding settings : cabac=1 / ref=4 / deblock=1:-3:-3 / analyse=0x3:0x113 / me=umh / subme=9 / psy=1 / psy_rd=1.00:0.00 / mixed_ref=1 / me_range=16 / chroma_me=1 / trellis=2 / 8x8dct=1 / cqm=0 / deadzone=21,11 / fast_pskip=1 / chroma_qp_offset=-2 / threads=9 / lookahead_threads=1 / sliced_threads=0 / nr=0 / decimate=1 / interlaced=0 / bluray_compat=0 / constrained_intra=0 / bframes=3 / b_pyramid=2 / b_adapt=2 / b_bias=0 / direct=3 / weightb=1 / open_gop=0 / weightp=2 / keyint=240 / keyint_min=24 / scenecut=40 / intra_refresh=0 / rc_lookahead=60 / rc=crf / mbtree=1 / crf=16.5 / qcomp=0.60 / qpmin=0 / qpmax=69 / qpstep=4 / vbv_maxrate=12800 / vbv_bufsize=19400 / crf_max=0.0 / nal_hrd=none / filler=0 / ip_ratio=1.40 / aq=1:1.00
Language : English
Default : Yes
Forced : No
Color range : Limited
Color primaries : BT.709
Transfer characteristics : BT.709
Matrix coefficients : BT.709

Audio
ID : 2
Format : AAC LC
Format/Info : Advanced Audio Codec Low Complexity
Codec ID : A_AAC-2
Duration : 1 h 26 min
Bit rate : 1 075 kb/s
Channel(s) : 6 channels
Channel layout : C L R Ls Rs LFE
Sampling rate : 48.0 kHz
Frame rate : 46.875 FPS (1024 SPF)
Compression mode : Lossy
Delay relative to video : -21 ms
Stream size : 662 MiB (13%)
Title : English-5.1
Language : English
Default : Yes
Forced : No

Trackers



Files


Related

DLTitleUpCreatedSize💬
Battle Star Wars 2020 ENGLISH BDRIP 1080p X264 AAC-MINION
10 months ago 10 months ago 4.97 GBs 0 1 0 0
Battle Star Wars (2020) [720p] [WEBRip] [YTS LT]
1 year ago 1 year ago 790.7 MBs 0 515 319 2K
Epic Pornstar Battles of 2016 (Edition-An Hour Long Porn Compilation)
3 years ago 5 years ago 2.05 GBs 0 0 0 0
Battle Of The Asses 7 XXX DVDRip x264-Pr0nStarS
3 years ago 3 years ago 1.12 GBs 0 333 323 1K

Comments

Unidentified:




Magnet4You Torrentz2 PirateIro API Contact Torrent4You